• 11
  • 191
  • done
Anonymous Downloadondemand_video
  • City.of.Lies.2018.1080p.BDRip.mkv
  • 17 GB
  • св студия
  • City Lies 2018 1080p BDRip mkv
  • HD Video
Warning! Use a VPN When Downloading Torrents!
Your IP Address is ,
Your Internet Provider can see when you download torrents! Hide your IP ADDRESS with a VPN
We strongly recommend Trust.Zone VPN to hide your torrenting. It's FREE!
DOWNLOAD VPN
63%

City of Lies (2019)

  • Crime Thriller
  • Los Angeles Police Department detective Russell Poole has spent years trying to solve his biggest case -- the murders of The Notorious B.I.G. and Tupac Shakur -- but after two decades, the investigation remains open. Jack Jackson, a reporter desperate to save his reputation and career, is determined to find out why. In search of the truth, the two team up and unravel a growing web of institutional corruption and lies.

    expand_more
    English

    Description

    Город лжи / City of Lies

    image

    Страна : Великобритания, США

    Жанр : Триллер, драма, криминал, детектив, биография

    Год выпуска : 2019

    Продолжительность : 01:52:17


    Перевод : Профессиональный (многоголосый закадровый) |

    СВ Студия

    Субтитры : Отсутствуют

    Режиссер : Брэд Фурман / Brad Furman


    В ролях :
    Джонни Депп, Форест Уитакер, Тоби Хасс, Дэйтон Калли, Нил Браун мл., Луис Хертэм, Шей Уигэм, Ксандер Беркли, Мелани Бенц, Шамир Андерсон


    Описание :
    7 сентября 1996 года был смертельно ранен рэпер Тупак Шакур, через полгода был застрелен главный подозреваемый в его убийстве - хип-хоп-звезда Бигги Смолз. Преступники не были найдены, дело о «рэперской войне побережий» было закрыто. Спустя годы опальный детектив Рассел Пул возвращается к расследованию и вместе с репортером Джексоном распутывает паутину немыслимого заговора, в котором, очевидно, замешана полиция Лас-Вегаса.


    Качество : BDRip 1080p

    Контейнер : MKV

    Видео : 1920x804 (2.396), 24 fps, MPEG-4 AVC ~18.4 Mbps avg, 0.125 bit/pixel

    Аудио#1 : Русский, 48 kHz, AC3, 6 ch, ~640 kbps avg |СВ Студия|

    Аудио#2 : Английский, 48 kHz, AC3, 6 ch, ~640 kbps avg |Оригинал|

    Реклама: Отсутствует

    Сэмпл


    MediaInfo

    `General
    Unique ID : 203838078362967612990291088183101862123 (0x9959C93041379B55B9B52C794A51B0EB)
    Complete name : D:City.of.Lies.2018.1080p.BDRip.mkv
    Format : Matroska
    Format version : Version 4 / Version 2
    File size : 15.4 GiB
    Duration : 1 h 52 min
    Overall bit rate : 19.7 Mb/s
    Movie name : City.of.Lies.2018.1080p.BluRay.DD5.1.x264-iFT
    Encoded date : UTC 2019-06-27 21:40:06
    Writing application : mkvmerge v7.5.0 ('Glass Culture') 32bit built on Jan 4 2015 16:37:25
    Writing library : libebml v1.3.1 + libmatroska v1.4.2

    Video
    ID : 1
    Format : AVC
    Format/Info : Advanced Video Codec
    Format profile : [email protected]
    Format settings : CABAC / 5 Ref Frames
    Format settings, CABAC : Yes
    Format settings, ReFrames : 5 frames
    Codec ID : VMPEG4/ISO/AVC
    Duration : 1 h 52 min
    Bit rate : 18.4 Mb/s
    Width : 1 920 pixels
    Height : 804 pixels
    Display aspect ratio : 2.40:1
    Frame rate mode : Constant
    Frame rate : 24.000 FPS
    Color space : YUV
    Chroma subsampling : 4:2:0
    Bit depth : 8 bits
    Scan type : Progressive
    Bits/(Pixel*Frame) : 0.497
    Stream size : 14.4 GiB (93%)
    Writing library : x264 core 155 r2867+74 66b5600 t
    modCustom2 [[email protected] X8664]
    Encoding settings : cabac=1 / ref=5 / deblock=1:-3:-3 / analyse=0x3:0x113 / me=umh / subme=11 / psy=1 / fade
    compensate=0.00 / psyrd=1.00:0.00 / mixedref=1 / merange=32 / chromame=1 / trellis=2 / 8x8dct=1 / cqm=0 / deadzone=21,11 / fastpskip=0 / chromaqpoffset=-2 / threads=12 / lookaheadthreads=2 / slicedthreads=0 / nr=0 / decimate=0 / interlaced=0 / bluraycompat=0 / constrainedintra=0 / fgo=0 / bframes=8 / bpyramid=2 / badapt=2 / bbias=0 / direct=3 / weightb=1 / opengop=0 / weightp=2 / keyint=250 / keyintmin=24 / scenecut=40 / intrarefresh=0 / rclookahead=60 / rc=crf / mbtree=0 / crf=16.0000 / qcomp=0.60 / qpmin=0:0:0 / qpmax=69:69:69 / qpstep=4 / vbvmaxrate=62500 / vbvbufsize=78125 / crfmax=0.0 / nalhrd=none / filler=0 / ipratio=1.30 / pbratio=1.20 / aq=3:0.80 / aq-sensitivity=10.00 / aq-factor=1.00:1.00:1.00 / aq2=0 / aq3=0
    Language : English
    Default : No
    Forced : No
    Color range : Limited
    Color primaries : BT.709
    Transfer characteristics : BT.709
    Matrix coefficients : BT.709

    Audio #1
    ID : 2
    Format : AC-3
    Format/Info : Audio Coding 3
    Commercial name : Dolby Digital
    Codec ID : A_AC3
    Duration : 1 h 52 min
    Bit rate mode : Constant
    Bit rate : 640 kb/s
    Channel(s) : 6 channels
    Channel layout : L R C LFE Ls Rs
    Sampling rate : 48.0 kHz
    Frame rate : 31.250 FPS (1536 SPF)
    Bit depth : 16 bits
    Compression mode : Lossy
    Stream size : 514 MiB (3%)
    Title : СВ студия
    Language : Russian
    Service kind : Complete Main
    Default : Yes
    Forced : No

    Audio #2
    ID : 3
    Format : AC-3
    Format/Info : Audio Coding 3
    Commercial name : Dolby Digital
    Codec ID : A_AC3
    Duration : 1 h 52 min
    Bit rate mode : Constant
    Bit rate : 640 kb/s
    Channel(s) : 6 channels
    Channel layout : L R C LFE Ls Rs
    Sampling rate : 48.0 kHz
    Frame rate : 31.250 FPS (1536 SPF)
    Bit depth : 16 bits
    Compression mode : Lossy
    Stream size : 514 MiB (3%)
    Language : English
    Service kind : Complete Main
    Default : No
    Forced : No `

    Скриншоты

    image image image image


    More at ibit.to
    And ibit.uno
    And ibit.ws

    Reviews

    Comments

    Files

    City.of.Lies.2018.1080p.BDRip.mkv 17 GB

    Stream

    Downloading Seeding City.of.Lies.2018.1080p.BDRip.mkv from to 0 peers.
    of
    0 b/s / ↗0 b/s