• 3
  • 0
  • 113
Sponsored Downloadondemand_video
  • Christopher Robin 2018 720p BluRay x264 ESub [MW]
  • 982 MB
  • moviezworldz
  • Christopher Robin 2018 720p BluRay x264 ESub
  • English
  • HD
74%

Christopher Robin (2018)

  • Adventure Comedy Family Fantasy
  • Christopher Robin, the boy who had countless adventures in the Hundred Acre Wood, has grown up and lost his way. Now it’s up to his spirited and loveable stuffed animals, Winnie The Pooh, Tigger, Piglet, and the rest of the gang, to rekindle their friendship and remind him of endless days of childlike wonder and make-believe, when doing nothing was the very best something.

    expand_more
    English
  • $75,000,000
  • Description

    image

    **
    General

    Format : Matroska

    Format version : Version 4 / Version 2

    File size : 982 MiB

    Duration : 1 h 43 min

    Overall bit rate : 1 321 kb/s

    Video

    ID : 1

    Format : AVC

    Format/Info : Advanced Video Codec

    Format profile : [email protected]
    Format settings : CABAC / 4 Ref Frames

    Format settings, CABAC : Yes

    Format settings, RefFrames : 4 frames

    Codec ID : V_MPEG4/ISO/AVC

    Duration : 1 h 43 min

    Bit rate : 1 200 kb/s

    Width : 1 280 pixels

    Height : 536 pixels

    Display aspect ratio : 2.40:1

    Frame rate mode : Constant

    Frame rate : 23.976 (24000/1001) FPS

    Color space : YUV

    Chroma subsampling : 4:2:0

    Bit depth : 8 bits

    Scan type : Progressive

    Bits/(Pixel*Frame) : 0.073

    Stream size : 885 MiB (90%)

    Writing library : x264 core 155 r2901 7d0ff22

    Default : Yes

    Forced : No

    Audio

    ID : 2

    Format : AAC

    Format/Info : Advanced Audio Codec

    Format profile : LC

    Codec ID : A_AAC-2

    Duration : 1 h 43 min

    Bit rate : 128 kb/s

    Channel(s) : 2 channels

    Channel positions : Front: L R

    Sampling rate : 48.0 kHz

    Frame rate : 46.875 FPS (1024 SPF)

    Compression mode : Lossy

    Stream size : 95.4 MiB (10%)

    Language : English

    Default : Yes

    Forced : No

    Text

    ID : 3

    Format : UTF-8

    Codec ID : S_TEXT/UTF8

    Codec ID/Info : UTF-8 Plain Text

    Duration : 1 h 39 min

    Bit rate : 66 b/s

    Count of elements : 1701

    Stream size : 48.6 KiB (0%)

    Language : English

    Default : Yes

    Forced : No

    **

    Click To Enlarge Image

    image
    image
    image
    image
    image
    image


    More at ibit.to
    And ibit.uno
    And ibit.ws

    Reviews

    Not only was that **so fuckin' cute**, I also absolutely support its Oscar nomination for visual effects. Owl and Rabbit were less stellar, but all of the stuffed animals, most especially Whinnie the Pooh, looked **incredible**. _Final rating:★★★ - I liked it. Would personally recommend you give it a go._

    ***Simple and cute*** Christopher Robin (Ewan McGregor) is in his 40s, married with a daughter, and working the joyless grind in London when his pal Winnie-the-Pooh unexpectedly shows up. He takes the stuffed animal back to his childhood haunts in Hundred Acre Wood to find Pooh’s other stuffed animal friends. Hayley Atwell and Bronte Carmichael play Christopher’s wife and daughter. Released in 2018, "Christopher Robin" is a decent live-action rendering of A.A. Milne’s popular characters with the twist that Christopher is an adult rediscovering his childhood friends and the simple joys thereof. The theme of escaping the work grind and getting your inspiration back recalls “Joe Versus the Volcano” (1990), “City Slickers” (1991) and probably a gazillion other flicks. The stuffed animal critters are ultra-cute, the story is simple and the English cinematography is exquisite. I would’ve preferred a more gripping story, but I think the creators kept it simple on purpose. The film runs 1 hour, 44 minutes and was shot entirely in England (London, Berkshire, Kent & East Sussex). GRADE: B-/C+

    Comments

    Files

    Christopher Robin 2018 720p BluRay x264 ESub [MW].mkv 982 MB

    Stream

    Downloading Seeding Christopher Robin 2018 720p BluRay x264 ESub [MW] from to 0 peers.
    of
    0 b/s / ↗0 b/s