• 1
  • 0
  • done
Anonymous Download
Warning! Use a VPN When Downloading Torrents!
Your IP Address is ,
Your Internet Provider can see when you download torrents! Hide your IP ADDRESS with a VPN
We strongly recommend Trust.Zone VPN to hide your torrenting. It's FREE!
DOWNLOAD VPN

Description

Christophe Rousset / Frescobaldi - Toccate e partite d'intavolatura di cimbalo, libro primo

image

Формат записи/Источник записи : [TR24][OF]

Наличие водяных знаков : Нет

Год издания/переиздания диска : 2019

Жанр : Classical

Издатель (лейбл) : Aparté

Продолжительность : 01:26:23

Наличие сканов в содержимом раздачи : Буклет PDF

Треклист :

Frescobaldi: Recercari et canzoni franzese fatte sopra diversi obblighi in partitura, libro primo (1615)

1:26:23
01. Toccata prima, F 2.01 4:57
02. Cento partite sopra passacagli, F 2.29 11:15
03. Toccata nona, F 2.09 5:31
04. Partite sopra l'aria della Romanesca, F 2.13 12:20
05. Toccata ottava, F 2.08 3:54
06. Partite sopra l'aria di Monica, F 2.37 7:52
07. Toccata decima, F 2.10 4:20
08. Balletto terzo, corrente e passacagli, F 2.26 3:29
09. Toccata terza, F 2.03 3:56
10. Partite sopra l'aria di Follia, F 2.16 5:19
11. Toccata sesta, F 2.06 5:42
12. Quatro correnti, F 2.20 3:23
13. Toccata settima, F 2.07 4:58
14. Balletto e ciaccona, F 2.32 1:23
15. Toccata Seconda, F 2.02 4:43
16. Balletto Primo, F 2.21 1:56
17. Balletto Secondo, F 2.24 1:25


Christophe Rousset (harpsichord)


Контейнер : FLAC (*.flac)

Тип рипа : tracks

Разрядность : 24/96

Формат : PCM

Количество каналов : 2.0

BackCover

image

Лог проверки качества

`foobar2000 1.4.3 / Dynamic Range Meter 1.1.1
log date: 2019-05-15 20:23:47


Analyzed: Christophe Rousset / Frescobaldi: Toccate e partite d'intavolatura di cimbalo, libro primo
DR Peak RMS Duration Track

DR13 -2.74 dB -19.98 dB 4:58 01-Toccate e partite d'intavolatura di cimbalo, libro primo: Toccata prima, F 2.01
DR13 -3.28 dB -19.35 dB 11:16 02-Toccate e partite d'intavolatura di cimbalo, libro primo: Cento partite sopra passacagli, F 2.29
DR13 -2.86 dB -19.36 dB 5:32 03-Toccate e partite d'intavolatura di cimbalo, libro primo: Toccata nona, F 2.09
DR14 -2.79 dB -19.99 dB 12:20 04-Toccate e partite d'intavolatura di cimbalo, libro primo: Partite sopra l'aria della Romanesca, F 2.13
DR13 -2.20 dB -19.14 dB 3:55 05-Toccate e partite d'intavolatura di cimbalo, libro primo: Toccata ottava, F 2.08
DR13 -3.62 dB -19.20 dB 7:52 06-Toccate e partite d'intavolatura di cimbalo, libro primo: Partite sopra l'aria di Monica, F 2.37
DR13 -2.61 dB -19.37 dB 4:20 07-Toccate e partite d'intavolatura di cimbalo, libro primo: Toccata decima, F 2.10
DR13 -3.36 dB -19.74 dB 3:30 08-Toccate e partite d'intavolatura di cimbalo, libro primo: Balletto terzo, corrente e passacagli, F 2.26
DR13 -3.76 dB -19.83 dB 3:56 09-Toccate e partite d'intavolatura di cimbalo, libro primo: Toccata terza, F 2.03
DR14 -1.06 dB -18.33 dB 5:19 10-Toccate e partite d'intavolatura di cimbalo, libro primo: Partite sopra l'aria di Follia, F 2.16
DR14 -1.17 dB -19.42 dB 5:42 11-Toccate e partite d'intavolatura di cimbalo, libro primo: Toccata sesta, F 2.06
DR13 -2.82 dB -18.06 dB 3:24 12-Toccate e partite d'intavolatura di cimbalo, libro primo: Quatro correnti, F 2.20
DR14 -3.13 dB -19.92 dB 4:58 13-Toccate e partite d'intavolatura di cimbalo, libro primo: Toccata settima, F 2.07
DR13 -2.23 dB -19.04 dB 1:24 14-Toccate e partite d'intavolatura di cimbalo, libro primo: Balletto e ciaccona, F 2.32
DR13 -2.18 dB -19.59 dB 4:44 15-Toccate e partite d'intavolatura di cimbalo, libro primo: Toccata Seconda, F 2.02
DR13 -3.55 dB -18.95 dB 1:57 16-Toccate e partite d'intavolatura di cimbalo, libro primo: Balletto Primo, F 2.21

DR12 -2.55 dB -18.26 dB 1:25 17-Toccate e partite d'intavolatura di cimbalo, libro primo: Balletto Secondo, F 2.24

Number of tracks: 17
Official DR value: DR13

Samplerate: 96000 Hz
Channels: 2
Bits per sample: 24
Bitrate: 2879 kbps
Codec: FLAC
================================================================================ `

Источник (релизер) : https://www.prestomusic.com/classical/products/8606851--frescobaldi-toccate-e-par...balo-libro-primo


More at ibit.to
And ibit.uno
And ibit.ws

Comments

Files

Christophe Rousset - Frescobaldi - Toccate e partite d'intavolatura di cimbalo, libro primo (2019) [24-96]04. Toccate e partite d'intavolatura di cimb 266 MB
Christophe Rousset - Frescobaldi - Toccate e partite d'intavolatura di cimbalo, libro primo (2019) [24-96]02. Toccate e partite d'intavolatura di cimb 249 MB
Christophe Rousset - Frescobaldi - Toccate e partite d'intavolatura di cimbalo, libro primo (2019) [24-96]03. Toccate e partite d'intavolatura di cimb 120 MB
Christophe Rousset - Frescobaldi - Toccate e partite d'intavolatura di cimbalo, libro primo (2019) [24-96]01. Toccate e partite d'intavolatura di cimb 107 MB
Christophe Rousset - Frescobaldi - Toccate e partite d'intavolatura di cimbalo, libro primo (2019) [24-96]05. Toccate e partite d'intavolatura di cimb 86 MB
Christophe Rousset - Frescobaldi - Toccate e partite d'intavolatura di cimbalo, libro primo (2019) [24-96]06. Toccate e partite d'intavolatura di cimb 172 MB
Christophe Rousset - Frescobaldi - Toccate e partite d'intavolatura di cimbalo, libro primo (2019) [24-96]07. Toccate e partite d'intavolatura di cimb 95 MB
Christophe Rousset - Frescobaldi - Toccate e partite d'intavolatura di cimbalo, libro primo (2019) [24-96]08. Toccate e partite d'intavolatura di cimb 76 MB
Christophe Rousset - Frescobaldi - Toccate e partite d'intavolatura di cimbalo, libro primo (2019) [24-96]09. Toccate e partite d'intavolatura di cimb 85 MB
Christophe Rousset - Frescobaldi - Toccate e partite d'intavolatura di cimbalo, libro primo (2019) [24-96]10. Toccate e partite d'intavolatura di cimb 118 MB
Christophe Rousset - Frescobaldi - Toccate e partite d'intavolatura di cimbalo, libro primo (2019) [24-96]11. Toccate e partite d'intavolatura di cimb 124 MB
Christophe Rousset - Frescobaldi - Toccate e partite d'intavolatura di cimbalo, libro primo (2019) [24-96]12. Toccate e partite d'intavolatura di cimb 75 MB
Christophe Rousset - Frescobaldi - Toccate e partite d'intavolatura di cimbalo, libro primo (2019) [24-96]13. Toccate e partite d'intavolatura di cimb 108 MB
Christophe Rousset - Frescobaldi - Toccate e partite d'intavolatura di cimbalo, libro primo (2019) [24-96]14. Toccate e partite d'intavolatura di cimb 28 MB
Christophe Rousset - Frescobaldi - Toccate e partite d'intavolatura di cimbalo, libro primo (2019) [24-96]15. Toccate e partite d'intavolatura di cimb 102 MB
Christophe Rousset - Frescobaldi - Toccate e partite d'intavolatura di cimbalo, libro primo (2019) [24-96]16. Toccate e partite d'intavolatura di cimb 42 MB
Christophe Rousset - Frescobaldi - Toccate e partite d'intavolatura di cimbalo, libro primo (2019) [24-96]17. Toccate e partite d'intavolatura di cimb 31 MB
Christophe Rousset - Frescobaldi - Toccate e partite d'intavolatura di cimbalo, libro primo (2019) [24-96]Booklet.pdf 2.5 MB
Christophe Rousset - Frescobaldi - Toccate e partite d'intavolatura di cimbalo, libro primo (2019) [24-96]Cover.jpg 80 kB
Christophe Rousset - Frescobaldi - Toccate e partite d'intavolatura di cimbalo, libro primo (2019) [24-96]foo_dr.txt 3.1 kB

Stream

Downloading Seeding Christophe Rousset - Frescobaldi - Toccate e partite d'intavolatura di cimbalo, libro primo (2019) [24-96] from to 0 peers.
of
0 b/s / ↗0 b/s