• 1
  • -
  • done
Sponsored Download
  • Charlie Parker & Dizzy Gillespie - Bird and Diz (1950, 1997, Verve)
  • 179 MB
  • fiks22
  • Charlie Parker Dizzy Gillespie Bird Diz 1950 1997 Verve
  • Зарубежный джаз

Description

Charlie Parker & Dizzy Gillespie - Bird and Diz

image

Жанр : Bop

Год издания : 1997

Издатель (лейбл) : Verve Master Edition/PolyGram

Номер по каталогу : 521 436-2

Страна : США

Аудиокодек : FLAC (*.flac)

Тип рипа : tracks+.cue

Битрейт аудио : lossless

Продолжительность : 46:37

Источник (релизер) : Lontan (what)

Наличие сканов в содержимом раздачи : сетевые

Треклист :
01. Bloomdido (Parker) - 3:30
02. My Melancholy Baby (Burnett-Norton) - 3:30
03. Relaxin' with Lee (Parker) - 2:51
04. Leap Frog (Parker) - 2:36
05. An Oscar for Treadwell (Parker) - 3:29
06. Mohawk (Parker) - 3:45
07. My Melancholy Baby (alternate take) - 3:21
08. Relaxin' with Lee (alternate take) - 4:00
09. Leap Frog (alternate take) - 2:37
10. Leap Frog (alternate take) - 2:05
11. Leap Frog (alternate take) - 2:09
12. An Oscar for Treadwell (alternate take) - 3:24
13. Mohawk (alternate take) - 4:06
14. Relaxin' with Lee (breakdown take) - 0:21
15. Relaxin' with Lee (breakdown take) - 1:14
16. Relaxin' with Lee (false start) - 0:07
17. Relaxin' with Lee (breakdown take) - 0:27
18. Leap Frog (breakdown take) - 0:29
19. Leap Frog (breakdown take) - 0:18
20. Leap Frog (breakdown take) - 0:42
21. Leap Frog (breakdown take) - 0:19
22. Leap Frog (breakdown take) - 0:21
23. Leap Frog (breakdown take) - 0:15
24. Leap Frog (breakdown take) - 0:41

Состав :
Charlie Parker - alto saxophone
Dizzy Gillespie - trumpet
Thelonious Monk - piano
Curly Russell - bass
Buddy Rich - drums

Recorded in New York on June 6, 1950.

Лог создания рипа

`Exact Audio Copy V0.99 prebeta 3 from 28. July 2007

EAC extraction logfile from 10. January 2008, 4:45

Charlie Parker & Dizzy Gillespie / Bird and Diz

Used drive : TSSTcorpDVD+-RW TS-L532B Adapter: 1 ID: 0

Read mode : Secure
Utilize accurate stream : Yes
Defeat audio cache : Yes
Make use of C2 pointers : No

Read offset correction : 704
Overread into Lead-In and Lead-Out : No
Fill up missing offset samples with silence : Yes
Delete leading and trailing silent blocks : No
Null samples used in CRC calculations : Yes
Used interface : Installed external ASPI interface
Gap handling : Appended to previous track

Used output format : User Defined Encoder
Selected bitrate : 192 kBit/s
Quality : High
Add ID3 tag : No
Command line compressor : C:ProgramExact Audio Copyflac.exe
Additional command line options : -8 -A tukey(0.25) -A gauss(0.1875) -b 4096 -V -T "artist=%a" -T "src=%t" -T "album=%g" -T "date=%y" -T "tracknumber=%n" -T "genre=%m" %s --sector-align

TOC of the extracted CD

Track | Start | Length | Start sector | End sector


1 | 0:00.00 | 3:29.57 | 0 | 15731
2 | 3:29.57 | 3:29.55 | 15732 | 31461
3 | 6:59.37 | 2:50.65 | 31462 | 44276
4 | 9:50.27 | 2:35.48 | 44277 | 55949
5 | 12:26.00 | 3:28.67 | 55950 | 71616
6 | 15:54.67 | 3:44.73 | 71617 | 88489
7 | 19:39.65 | 3:20.47 | 88490 | 103536
8 | 23:00.37 | 3:59.38 | 103537 | 121499
9 | 27:00.00 | 2:37.25 | 121500 | 133299
10 | 29:37.25 | 2:04.50 | 133300 | 142649
11 | 31:42.00 | 2:09.35 | 142650 | 152359
12 | 33:51.35 | 3:24.15 | 152360 | 167674
13 | 37:15.50 | 4:06.25 | 167675 | 186149
14 | 41:22.00 | 0:20.40 | 186150 | 187689
15 | 41:42.40 | 1:13.55 | 187690 | 193219
16 | 42:56.20 | 0:06.45 | 193220 | 193714
17 | 43:02.65 | 0:27.35 | 193715 | 195774
18 | 43:30.25 | 0:28.50 | 195775 | 197924
19 | 43:59.00 | 0:17.50 | 197925 | 199249
20 | 44:16.50 | 0:41.50 | 199250 | 202374
21 | 44:58.25 | 0:19.00 | 202375 | 203799
22 | 45:17.25 | 0:21.25 | 203800 | 205399
23 | 45:38.50 | 0:15.00 | 205400 | 206524
24 | 45:53.50 | 0:41.25 | 206525 | 209624

Track 1

Filename C:MusicSeedingBird and Diz[Flac]01 - Charlie Parker & Dizzy Gillespie - Bloomdido.wav

Pre-gap length 0:00:02.00

Peak level 75.9 %
Track quality 100.0 %
Test CRC A797CF5D
Copy CRC A797CF5D
Cannot be verified as accurate (confidence 3) [524D36D1], AccurateRip returned [75A80580]
Copy OK

Track 2

Filename C:MusicSeedingBird and Diz[Flac]02 - Charlie Parker & Dizzy Gillespie - My Melancholy Baby.wav

Pre-gap length 0:00:04.62

Peak level 74.7 %
Track quality 100.0 %
Test CRC 81492F56
Copy CRC 81492F56
Cannot be verified as accurate (confidence 4) [65B55890], AccurateRip returned [40EFE301]
Copy OK

Track 3

Filename C:MusicSeedingBird and Diz[Flac]03 - Charlie Parker & Dizzy Gillespie - Relaxin' With Lee.wav

Pre-gap length 0:00:05.62

Peak level 90.6 %
Track quality 100.0 %
Test CRC A5F93515
Copy CRC A5F93515
Cannot be verified as accurate (confidence 4) [219AD18C], AccurateRip returned [E991236D]
Copy OK

Track 4

Filename C:MusicSeedingBird and Diz[Flac]04 - Charlie Parker & Dizzy Gillespie - Leap Frog.wav

Pre-gap length 0:00:03.89

Peak level 76.9 %
Track quality 100.0 %
Test CRC 4F17FE2D
Copy CRC 4F17FE2D
Cannot be verified as accurate (confidence 4) [D2240808], AccurateRip returned [5B1D2041]
Copy OK

Track 5

Filename C:MusicSeedingBird and Diz[Flac]05 - Charlie Parker & Dizzy Gillespie - An Oscar for Treadwell.wav

Pre-gap length 0:00:05.66

Peak level 77.9 %
Track quality 99.9 %
Test CRC 208AF057
Copy CRC 208AF057
Cannot be verified as accurate (confidence 4) [A8100EF3], AccurateRip returned [5D5F523D]
Copy OK

Track 6

Filename C:MusicSeedingBird and Diz[Flac]06 - Charlie Parker & Dizzy Gillespie - Mohawk.wav

Pre-gap length 0:00:05.69

Peak level 93.5 %
Track quality 100.0 %
Test CRC DCF564F0
Copy CRC DCF564F0
Cannot be verified as accurate (confidence 4) [E9B3D751], AccurateRip returned [3C0BEC99]
Copy OK

Track 7

Filename C:MusicSeedingBird and Diz[Flac]07 - Charlie Parker & Dizzy Gillespie - My Melancholy Baby (Alternate Take).wav

Pre-gap length 0:00:09.86

Peak level 89.1 %
Track quality 100.0 %
Test CRC 44E16093
Copy CRC 44E16093
Cannot be verified as accurate (confidence 4) [459911F0], AccurateRip returned [E5D4944D]
Copy OK

Track 8

Filename C:MusicSeedingBird and Diz[Flac]08 - Charlie Parker & Dizzy Gillespie - Relaxin' With Lee (Alternate Take).wav

Pre-gap length 0:00:03.06

Peak level 93.3 %
Track quality 100.0 %
Test CRC E88ADD3D
Copy CRC E88ADD3D
Cannot be verified as accurate (confidence 4) [3C7B53BF], AccurateRip returned [1DC05BCB]
Copy OK

Track 9

Filename C:MusicSeedingBird and Diz[Flac]09 - Charlie Parker & Dizzy Gillespie - Leap Frog (Alternate Take).wav

Pre-gap length 0:00:03.33

Peak level 84.0 %
Track quality 100.0 %
Test CRC A18F278A
Copy CRC A18F278A
Cannot be verified as accurate (confidence 4) [5ECA7832], AccurateRip returned [CABD6BAF]
Copy OK

Track 10

Filename C:MusicSeedingBird and Diz[Flac]10 - Charlie Parker & Dizzy Gillespie - Leap Frog (Alternate Take).wav

Pre-gap length 0:00:02.66

Peak level 78.4 %
Track quality 100.0 %
Test CRC 3C05C863
Copy CRC 3C05C863
Cannot be verified as accurate (confidence 4) [8560BEB1], AccurateRip returned [25C15542]
Copy OK

Track 11

Filename C:MusicSeedingBird and Diz[Flac]11 - Charlie Parker & Dizzy Gillespie - Leap Frog (Alternate Take).wav

Pre-gap length 0:00:02.66

Peak level 69.8 %
Track quality 100.0 %
Test CRC E75C7455
Copy CRC E75C7455
Cannot be verified as accurate (confidence 4) [B3B89894], AccurateRip returned [08E4FDE3]
Copy OK

Track 12

Filename C:MusicSeedingBird and Diz[Flac]12 - Charlie Parker & Dizzy Gillespie - An Oscar for Treadwell (Alternate Take).wav

Pre-gap length 0:00:02.66

Peak level 73.5 %
Track quality 99.9 %
Test CRC A8F48B1D
Copy CRC A8F48B1D
Cannot be verified as accurate (confidence 4) [DE8AFB76], AccurateRip returned [4A2530FD]
Copy OK

Track 13

Filename C:MusicSeedingBird and Diz[Flac]13 - Charlie Parker & Dizzy Gillespie - Mohawk (Alternate Take).wav

Pre-gap length 0:00:02.50

Peak level 76.2 %
Track quality 100.0 %
Test CRC 761EDCD1
Copy CRC 761EDCD1
Cannot be verified as accurate (confidence 4) [4FF99945], AccurateRip returned [CCD76851]
Copy OK

Track 14

Filename C:MusicSeedingBird and Diz[Flac]14 - Charlie Parker & Dizzy Gillespie - Relaxin' With Lee (Breakdown Take).wav

Pre-gap length 0:00:17.40

Peak level 69.1 %
Track quality 100.0 %
Test CRC 486664CB
Copy CRC 486664CB
Cannot be verified as accurate (confidence 4) [C986BED1], AccurateRip returned [26C1E9F7]
Copy OK

Track 15

Filename C:MusicSeedingBird and Diz[Flac]15 - Charlie Parker & Dizzy Gillespie - Relaxin' With Lee (Breakdown Take).wav

Pre-gap length 0:00:02.66

Peak level 71.3 %
Track quality 99.8 %
Test CRC 6FC090E8
Copy CRC 6FC090E8
Cannot be verified as accurate (confidence 4) [6428FA30], AccurateRip returned [4D70E425]
Copy OK

Track 16

Filename C:MusicSeedingBird and Diz[Flac]16 - Charlie Parker & Dizzy Gillespie - Relaxin' With Lee (False Start).wav

Pre-gap length 0:00:04.93

Peak level 6.4 %
Track quality 100.0 %
Test CRC 407E1C3F
Copy CRC 407E1C3F
Cannot be verified as accurate (confidence 4) [5EFCA6CD], AccurateRip returned [2076E012]
Copy OK

Track 17

Filename C:MusicSeedingBird and Diz[Flac]17 - Charlie Parker & Dizzy Gillespie - Relaxin' With Lee (Breakdown Take).wav

Pre-gap length 0:00:02.17

Peak level 65.9 %
Track quality 100.0 %
Test CRC 37013662
Copy CRC 37013662
Cannot be verified as accurate (confidence 4) [196CFE41], AccurateRip returned [8B59F172]
Copy OK

Track 18

Filename C:MusicSeedingBird and Diz[Flac]18 - Charlie Parker & Dizzy Gillespie - Leap Frog (Breakdown Take).wav

Pre-gap length 0:00:02.33

Peak level 64.9 %
Track quality 100.0 %
Test CRC 123F8243
Copy CRC 123F8243
Cannot be verified as accurate (confidence 4) [2BC7E1E8], AccurateRip returned [F5DC595D]
Copy OK

Track 19

Filename C:MusicSeedingBird and Diz[Flac]19 - Charlie Parker & Dizzy Gillespie - Leap Frog (Breakdown Take).wav

Pre-gap length 0:00:01.40

Peak level 75.4 %
Track quality 100.0 %
Test CRC 1E3DA611
Copy CRC 1E3DA611
Cannot be verified as accurate (confidence 4) [675D2EEF], AccurateRip returned [0B131676]
Copy OK

Track 20

Filename C:MusicSeedingBird and Diz[Flac]20 - Charlie Parker & Dizzy Gillespie - Leap Frog (Breakdown Take).wav

Pre-gap length 0:00:02.66

Peak level 70.9 %
Track quality 100.0 %
Test CRC 66BB0122
Copy CRC 66BB0122
Cannot be verified as accurate (confidence 4) [9778EAD6], AccurateRip returned [BF607D9F]
Copy OK

Track 21

Filename C:MusicSeedingBird and Diz[Flac]21 - Charlie Parker & Dizzy Gillespie - Leap Frog (Breakdown Take).wav

Pre-gap length 0:00:00.66

Peak level 86.5 %
Track quality 100.0 %
Test CRC 21F532D3
Copy CRC 21F532D3
Cannot be verified as accurate (confidence 4) [AC8726D7], AccurateRip returned [645EBD54]
Copy OK

Track 22

Filename C:MusicSeedingBird and Diz[Flac]22 - Charlie Parker & Dizzy Gillespie - Leap Frog (Breakdown Take).wav

Pre-gap length 0:00:00.66

Peak level 78.5 %
Track quality 100.0 %
Test CRC AE9D50F0
Copy CRC AE9D50F0
Cannot be verified as accurate (confidence 4) [EFB9D446], AccurateRip returned [A1ED89B4]
Copy OK

Track 23

Filename C:MusicSeedingBird and Diz[Flac]23 - Charlie Parker & Dizzy Gillespie - Leap Frog (Breakdown Take).wav

Pre-gap length 0:00:00.86

Peak level 78.3 %
Track quality 100.0 %
Test CRC 969F15FF
Copy CRC 969F15FF
Cannot be verified as accurate (confidence 4) [47745FC8], AccurateRip returned [19EC9700]
Copy OK

Track 24

Filename C:MusicSeedingBird and Diz[Flac]24 - Charlie Parker & Dizzy Gillespie - Leap Frog (Breakdown Take).wav

Pre-gap length 0:00:00.93

Peak level 70.1 %
Track quality 100.0 %
Test CRC 016858D6
Copy CRC 016858D6
Cannot be verified as accurate (confidence 4) [EBF83986], AccurateRip returned [0174DB40]
Copy OK

No tracks could be verified as accurate
You may have a different pressing from the one(s) in the database

No errors occurred

End of status report `

Содержание индексной карты (.CUE)

REM GENRE Jazz REM DATE 1950 REM DISCID 540AEB18 REM COMMENT "ExactAudioCopy v0.99pb3" PERFORMER "Charlie Parker & Dizzy Gillespie" TITLE "Bird and Diz" FILE "01 - Bloomdido.wav" WAVE TRACK 01 AUDIO TITLE "Bloomdido" PERFORMER "Charlie Parker & Dizzy Gillespie" INDEX 01 00:00:00 TRACK 02 AUDIO TITLE "My Melancholy Baby" PERFORMER "Charlie Parker & Dizzy Gillespie" INDEX 00 03:25:10 FILE "02 - My Melancholy Baby.wav" WAVE INDEX 01 00:00:00 TRACK 03 AUDIO TITLE "Relaxin' with Lee" PERFORMER "Charlie Parker & Dizzy Gillespie" INDEX 00 03:24:08 FILE "03 - Relaxin' with Lee.wav" WAVE INDEX 01 00:00:00 TRACK 04 AUDIO TITLE "Leap Frog" PERFORMER "Charlie Parker & Dizzy Gillespie" INDEX 00 02:46:73 FILE "04 - Leap Frog.wav" WAVE INDEX 01 00:00:00 TRACK 05 AUDIO TITLE "An Oscar for Treadwell" PERFORMER "Charlie Parker & Dizzy Gillespie" INDEX 00 02:29:73 FILE "05 - An Oscar for Treadwell.wav" WAVE INDEX 01 00:00:00 TRACK 06 AUDIO TITLE "Mohawk" PERFORMER "Charlie Parker & Dizzy Gillespie" INDEX 00 03:23:15 FILE "06 - Mohawk.wav" WAVE INDEX 01 00:00:00 TRACK 07 AUDIO TITLE "My Melancholy Baby (alternate take)" PERFORMER "Charlie Parker & Dizzy Gillespie" INDEX 00 03:35:08 FILE "07 - My Melancholy Baby (alternate take).wav" WAVE INDEX 01 00:00:00 TRACK 08 AUDIO TITLE "Relaxin' with Lee (alternate take)" PERFORMER "Charlie Parker & Dizzy Gillespie" INDEX 00 03:17:42 FILE "08 - Relaxin' with Lee (alternate take).wav" WAVE INDEX 01 00:00:00 TRACK 09 AUDIO TITLE "Leap Frog (alternate take)" PERFORMER "Charlie Parker & Dizzy Gillespie" INDEX 00 03:56:13 FILE "09 - Leap Frog (alternate take).wav" WAVE INDEX 01 00:00:00 TRACK 10 AUDIO TITLE "Leap Frog (alternate take)" PERFORMER "Charlie Parker & Dizzy Gillespie" INDEX 00 02:34:50 FILE "10 - Leap Frog (alternate take).wav" WAVE INDEX 01 00:00:00 TRACK 11 AUDIO TITLE "Leap Frog (alternate take)" PERFORMER "Charlie Parker & Dizzy Gillespie" INDEX 00 02:02:00 FILE "11 - Leap Frog (alternate take).wav" WAVE INDEX 01 00:00:00 TRACK 12 AUDIO TITLE "An Oscar for Treadwell (alternate take)" PERFORMER "Charlie Parker & Dizzy Gillespie" INDEX 00 02:06:60 FILE "12 - An Oscar for Treadwell (alternate take).wav" WAVE INDEX 01 00:00:00 TRACK 13 AUDIO TITLE "Mohawk (alternate take)" PERFORMER "Charlie Parker & Dizzy Gillespie" INDEX 00 03:21:52 FILE "13 - Mohawk (alternate take).wav" WAVE INDEX 01 00:00:00 TRACK 14 AUDIO TITLE "Relaxin' with Lee (breakdown take)" PERFORMER "Charlie Parker & Dizzy Gillespie" INDEX 00 03:48:70 FILE "14 - Relaxin' with Lee (breakdown take).wav" WAVE INDEX 01 00:00:00 TRACK 15 AUDIO TITLE "Relaxin' with Lee (breakdown take)" PERFORMER "Charlie Parker & Dizzy Gillespie" INDEX 00 00:17:65 FILE "15 - Relaxin' with Lee (breakdown take).wav" WAVE INDEX 01 00:00:00 TRACK 16 AUDIO TITLE "Relaxin' with Lee (false start)" PERFORMER "Charlie Parker & Dizzy Gillespie" INDEX 00 01:08:60 FILE "16 - Relaxin' with Lee (false start).wav" WAVE INDEX 01 00:00:00 TRACK 17 AUDIO TITLE "Relaxin' with Lee (breakdown take)" PERFORMER "Charlie Parker & Dizzy Gillespie" INDEX 00 00:04:32 FILE "17 - Relaxin' with Lee (breakdown take).wav" WAVE INDEX 01 00:00:00 TRACK 18 AUDIO TITLE "Leap Frog (breakdown take)" PERFORMER "Charlie Parker & Dizzy Gillespie" INDEX 00 00:25:10 FILE "18 - Leap Frog (breakdown take).wav" WAVE INDEX 01 00:00:00 TRACK 19 AUDIO TITLE "Leap Frog (breakdown take)" PERFORMER "Charlie Parker & Dizzy Gillespie" INDEX 00 00:27:20 FILE "19 - Leap Frog (breakdown take).wav" WAVE INDEX 01 00:00:00 TRACK 20 AUDIO TITLE "Leap Frog (breakdown take)" PERFORMER "Charlie Parker & Dizzy Gillespie" INDEX 00 00:15:00 FILE "20 - Leap Frog (breakdown take).wav" WAVE INDEX 01 00:00:00 TRACK 21 AUDIO TITLE "Leap Frog (breakdown take)" PERFORMER "Charlie Parker & Dizzy Gillespie" INDEX 00 00:41:00 FILE "21 - Leap Frog (breakdown take).wav" WAVE INDEX 01 00:00:00 TRACK 22 AUDIO TITLE "Leap Frog (breakdown take)" PERFORMER "Charlie Parker & Dizzy Gillespie" INDEX 00 00:18:25 FILE "22 - Leap Frog (breakdown take).wav" WAVE INDEX 01 00:00:00 TRACK 23 AUDIO TITLE "Leap Frog (breakdown take)" PERFORMER "Charlie Parker & Dizzy Gillespie" INDEX 00 00:20:35 FILE "23 - Leap Frog (breakdown take).wav" WAVE INDEX 01 00:00:00 TRACK 24 AUDIO TITLE "Leap Frog (breakdown take)" PERFORMER "Charlie Parker & Dizzy Gillespie" INDEX 00 00:14:05 FILE "24 - Leap Frog (breakdown take).wav" WAVE INDEX 01 00:00:00

Отчет CUETools

`[CUETools log; Date: 05.05.2013 18:39:04; Version: 2.1.4]
[CTDB TOCID: tbe1QF30A3xc.4tpH4g0YNU6luU-] found.
Track | CTDB Status
1 | (7/7) Accurately ripped
2 | (7/7) Accurately ripped
3 | (7/7) Accurately ripped
4 | (7/7) Accurately ripped
5 | (7/7) Accurately ripped
6 | (7/7) Accurately ripped
7 | (7/7) Accurately ripped
8 | (7/7) Accurately ripped
9 | (7/7) Accurately ripped
10 | (7/7) Accurately ripped
11 | (7/7) Accurately ripped
12 | (7/7) Accurately ripped
13 | (7/7) Accurately ripped
14 | (7/7) Accurately ripped
15 | (7/7) Accurately ripped
16 | (7/7) Accurately ripped
17 | (7/7) Accurately ripped
18 | (7/7) Accurately ripped
19 | (7/7) Accurately ripped
20 | (7/7) Accurately ripped
21 | (7/7) Accurately ripped
22 | (7/7) Accurately ripped
23 | (7/7) Accurately ripped
24 | (7/7) Accurately ripped
[AccurateRip ID: 00358ef0-0368b7c0-540aeb18] found.
Track [CRC | V2] Status
01 524d36d1|ff5f1b5e Accurately ripped
02 65b55890|cd81a4a9 Accurately ripped
03 219ad18c|a25578c6 Accurately ripped
04 d2240808|bf618c7a Accurately ripped
05 a8100ef3|5647f589 Accurately ripped
06 e9b3d751|e770ed1d Accurately ripped
07 459911f0|56fc7326 Accurately ripped
08 3c7b53bf|a0da6b5e Accurately ripped
09 5eca7832|7e5c682e Accurately ripped
10 8560beb1|9f3775ec Accurately ripped
11 b3b89894|0235c7ff Accurately ripped
12 de8afb76|fb2a9d45 Accurately ripped
13 4ff99945|935c23d8 Accurately ripped
14 c986bed1|430cc7c2 Accurately ripped
15 6428fa30|0bacf1ff Accurately ripped
16 5efca6cd|6e54f316 Accurately ripped
17 196cfe41|3a852f70 Accurately ripped
18 2bc7e1e8|3407a206 Accurately ripped
19 675d2eef|ca1b249a Accurately ripped
20 9778ead6|caa70b83 Accurately ripped
21 ac8726d7|7a4de1ed Accurately ripped
22 efb9d446|0a0b76c1 Accurately ripped
23 47745fc8|8744106c Accurately ripped
24 ebf83986|778da7b1 Accurately ripped
Offsetted by -1525:
01 75a80580 Accurately ripped
02 40efe301 Accurately ripped
03 e991236d Accurately ripped
04 5b1d2041 Accurately ripped
05 5d5f523d Accurately ripped
06 3c0bec99 Accurately ripped
07 e5d4944d Accurately ripped
08 1dc05bcb Accurately ripped
09 cabd6baf Accurately ripped
10 25c15542 Accurately ripped
11 08e4fde3 Accurately ripped
12 4a2530fd Accurately ripped
13 ccd76851 Accurately ripped
14 26c1e9f7 Accurately ripped
15 4d70e425 Accurately ripped
16 2076e012 Accurately ripped
17 8b59f172 Accurately ripped
18 f5dc595d Accurately ripped
19 0b131676 Accurately ripped
20 bf607d9f Accurately ripped
21 645ebd54 Accurately ripped
22 a1ed89b4 Accurately ripped
23 19ec9700 Accurately ripped
24 0174db40 Accurately ripped
Offsetted by -750:
01 666fd85e Accurately ripped
02 b91f7de7 Accurately ripped
03 6504693e Accurately ripped
04 f3ee464e Accurately ripped
05 0d69dd20 Accurately ripped
06 8ac8139c Accurately ripped
07 ee62a90e Accurately ripped
08 d6fdc876 Accurately ripped
09 070d4411 Accurately ripped
10 927f9ee8 Accurately ripped
11 1b2b0797 Accurately ripped
12 e25990a6 Accurately ripped
13 65e00740 Accurately ripped
14 d30a211a Accurately ripped
15 390280da Accurately ripped
16 ecafa28f Accurately ripped
17 7b9240cb Accurately ripped
18 d68235d6 Accurately ripped
19 c46031ca Accurately ripped
20 73e94320 Accurately ripped
21 c3c5d21f Accurately ripped
22 da7db004 Accurately ripped
23 781488f4 Accurately ripped
24 48f37dd1 Accurately ripped
Offsetted by -664:
01 abb36cee Accurately ripped
02 dca57c0e Accurately ripped
03 2d7af3c1 Accurately ripped
04 80194d80 Accurately ripped
05 da221ad1 Accurately ripped
06 1842713b Accurately ripped
07 71327008 Accurately ripped
08 0749dc33 Accurately ripped
09 86840efe Accurately ripped
10 1d2312f2 Accurately ripped
11 f4d1f0cd Accurately ripped
12 76e2caf4 Accurately ripped
13 ae563ce7 Accurately ripped
14 deb827fd Accurately ripped
15 a0ce5182 Accurately ripped
16 c4ba0ea7 Accurately ripped
17 cefbc63f Accurately ripped
18 45523880 Accurately ripped
19 3573d013 Accurately ripped
20 f4a2b822 Accurately ripped
21 7afe9f8d Accurately ripped
22 ad09580f Accurately ripped
23 bc88c4fe Accurately ripped
24 d27648fd Accurately ripped
Offsetted by -86:
01 7ed25913 Accurately ripped
02 07920f6d Accurately ripped
03 6922a92b Accurately ripped
04 45f900d6 Accurately ripped
05 e1d9fbce Accurately ripped
06 7cb7e84e Accurately ripped
07 d7dcb77d Accurately ripped
08 73c19616 Accurately ripped
09 e1ee11b6 Accurately ripped
10 04b17551 Accurately ripped
11 6dc5760e Accurately ripped
12 45473e3e Accurately ripped
13 bdfd5b69 Accurately ripped
14 7120d2dd Accurately ripped
15 098b3882 Accurately ripped
16 c77df404 Accurately ripped
17 dc34c982 Accurately ripped
18 bcf7df3e Accurately ripped
19 ae038a70 Accurately ripped
20 90497381 Accurately ripped
21 2aa54a11 Accurately ripped
22 b4d57841 Accurately ripped
23 e1e58558 Accurately ripped
24 4729dac7 Accurately ripped

Track Peak [CRC32] [W/O NULL] [LOG]
-- 93,5 [E0B3F33A] [483ED696]
01 75,9 [A797CF5D] [E59DABCE] CRC32
02 74,7 [81492F56] [453377F0] CRC32
03 90,6 [A5F93515] [A239575F] CRC32
04 76,9 [4F17FE2D] [7D535949] CRC32
05 77,9 [208AF057] [49039D5B] CRC32
06 93,5 [DCF564F0] [EABA2160] CRC32
07 89,1 [44E16093] [E3E82995] CRC32
08 93,3 [E88ADD3D] [06FD5B2E] CRC32
09 84,0 [A18F278A] [336D7A15] CRC32
10 78,4 [3C05C863] [5A4F9549] CRC32
11 69,8 [E75C7455] [6F8D634D] CRC32
12 73,5 [A8F48B1D] [8E0FA212] CRC32
13 76,2 [761EDCD1] [2D3B30BE] CRC32
14 69,1 [486664CB] [D16D173D] CRC32
15 71,3 [6FC090E8] [B63FB802] CRC32
16 6,4 [407E1C3F] [179FDABB] CRC32
17 65,9 [37013662] [7344F081] CRC32
18 64,9 [123F8243] [99EF564D] CRC32
19 75,4 [1E3DA611] [D9A9F996] CRC32
20 70,9 [66BB0122] [C4CB80A6] CRC32
21 86,5 [21F532D3] [C1540923] CRC32
22 78,5 [AE9D50F0] [152F985C] CRC32
23 78,3 [969F15FF] [6A98ECA9] CRC32
24 70,1 [016858D6] [C28867C9] CRC32 `

Review by Rick Anderson

This collection of 78 rpm singles, all recorded on June 6, 1950, was originally issued in album format in 1956. Several things distinguish this from numerous other quintet recordings featuring these two bebop pioneers. It was recorded during the period that Parker was working under the aegis of producer Norman Granz, whose preference for large and unusual ensembles was notorious. The end result in this case is a date that sounds very much like those that Parker and Gillespie recorded for Savoy and Dial, except with top-of-the-line production quality. Even more interesting, though, is Parker's choice of Thelonious Monk as pianist. Unfortunately, Monk is buried in the mix and gets very little solo space, so his highly idiosyncratic genius doesn't get much exposure here. Still, this is an outstanding album -- there are fine versions of Parker standards like "Leap Frog," "Mohawk," and "Relaxin' with Lee," as well as a burning performance of "Bloomdido" and an interesting (if not entirely thrilling) rendition of the chestnut "My Melancholy Baby." [The CD reissue adds three alternate takes to make what was originally a very skimpy program slightly more generous.]

На замену http://rutracker.org/forum/viewtopic.php?t=204174


More at ibit.to
And ibit.uno
And ibit.ws

Comments

4 years ago

Альбом "Bird and Diz" впервые заявил миру о новом джазовом стиле в, так сказать, задокументированном виде. Основной материал для пластинки был записан 6 июня 1950 года и первоначально выпускался в виде десятидюймовок на 78 оборотов в минуту. Позже, в 1956 году альбом был издан полноценным винилом и включал в себя восемь оригинальных композиций. Это было крайне удачное время для появления на записи как самих музыкантов, так и стиля в целом. "Птица и Диз" – пожалуй, один из немногих альбомов, где запечатлены все классические "паркеровские", ставшие позднее традиционными для бибопа композиции: "My Melancholy Baby", "Leap Frog", "Mohawk". Особо выделяется здесь Бадди Рич, приглашенный для этой записи продюсером Норманом Гранцем. Его "мозгодробительные" партии вносят настоящий хаос в общую атмосферу альбома и затмевают даже партии Монка. Во многом это стало причиной их дальнейших разногласий, а сами критики в результате практически никак не оценили на пластинке роль клавишных. Так или иначе, "Bird and Diz" является живым воплощением бибопа – стиля, который проложил дорогу современному джазу и открыл для нас много новых имен, в том числе Майлза Дэвиса и Макса Роуча. В обзоре этого студийного альбома, увидевшего свет в 1952 году, обозреватель журнала Down Beat написал о вкладе продюсера в звучание альбома: "В записях Нормана Гранца нет упоминаний о бибопе, и мы глубоко благодарны ему за то, что он напомнил нам с помощью этой пластинки, что такая музыка ещё очень даже жива". Что тут скажешь: благодаря Чарли Паркеру, Диззи Гиллеспи и альбому "Bird and Diz" эта музыка жива и по сей день!

Files

08 - Relaxin' with Lee (alternate take).flac 14 MB
13 - Mohawk (alternate take).flac 14 MB
06 - Mohawk.flac 13 MB
05 - An Oscar for Treadwell.flac 13 MB
01 - Bloomdido.flac 13 MB
02 - My Melancholy Baby.flac 13 MB
12 - An Oscar for Treadwell (alternate take).flac 13 MB
07 - My Melancholy Baby (alternate take).flac 12 MB
03 - Relaxin' with Lee.flac 10 MB
04 - Leap Frog.flac 9.9 MB
09 - Leap Frog (alternate take).flac 9.9 MB
11 - Leap Frog (alternate take).flac 8.5 MB
10 - Leap Frog (alternate take).flac 8.1 MB
Artwork/digipack1.jpg 4.5 MB
15 - Relaxin' with Lee (breakdown take).flac 4.4 MB
Artwork/digipack2.jpg 3.2 MB
20 - Leap Frog (breakdown take).flac 2.5 MB
24 - Leap Frog (breakdown take).flac 2.3 MB
Artwork/digipack3.jpg 2.2 MB
18 - Leap Frog (breakdown take).flac 1.5 MB
17 - Relaxin' with Lee (breakdown take).flac 1.4 MB
22 - Leap Frog (breakdown take).flac 1.3 MB
14 - Relaxin' with Lee (breakdown take).flac 1.2 MB
19 - Leap Frog (breakdown take).flac 1.0 MB
21 - Leap Frog (breakdown take).flac 1.0 MB
23 - Leap Frog (breakdown take).flac 846 kB
16 - Relaxin' with Lee (false start).flac 241 kB
folder.jpg 38 kB
Charlie Parker & Dizzy Gillespie - Bird and Diz.log 12 kB
Bird and Diz.accurip 7.9 kB
Bird and Diz.cue 4.9 kB
Charlie Parker & Dizzy Gillespie - Bird and Diz.m3u 893 B

Stream

Downloading Seeding Charlie Parker & Dizzy Gillespie - Bird and Diz (1950, 1997, Verve) from to 0 peers.
of
0 b/s / ↗0 b/s