• 11
  • 36
  • done
Anonymous Downloadondemand_video
Warning! Use a VPN When Downloading Torrents!
Your IP Address is ,
Your Internet Provider can see when you download torrents! Hide your IP ADDRESS with a VPN
We strongly recommend Trust.Zone VPN to hide your torrenting. It's FREE!
DOWNLOAD VPN
67%

Chappie (2015)

  • Crime Action Science Fiction
  • Every child comes into the world full of promise, and none more so than Chappie: he is gifted, special, a prodigy. Like any child, Chappie will come under the influence of his surroundings—some good, some bad—and he will rely on his heart and soul to find his way in the world and become his own man. But there's one thing that makes Chappie different from any one else: he is a robot.

    expand_more
    English
  • $49,000,000
  • Description

    image

    Chappie 2015 x264 720p Esub BluRay Dual Audio English Hindi GOPISAHI

    Format                         : Matroska

    Format version                 : Version 4

    File size                      : 950 MiB

    Duration                       : 2 h 0 min

    Overall bit rate               : 1 103 kb/s

    Movie name                     : Chappie 2015 GOPISAHI

    Video

    ID                             : 1

    Format                         : AVC

    Format/Info                    : Advanced Video Codec

    Format profile                 : [email protected]

    Format settings                : CABAC / 4 Ref Frames

    Format settings, CABAC         : Yes

    Format settings, Reference fra : 4 frames

    Codec ID                       : V_MPEG4/ISO/AVC

    Duration                       : 2 h 0 min

    Bit rate                       : 910 kb/s

    Width                          : 1 280 pixels

    Height                         : 536 pixels

    Display aspect ratio           : 2.40:1

    Frame rate mode                : Constant

    Frame rate                     : 23.976 (24000/1001) FPS

    Original frame rate            : 23.976 (23976/1000) FPS

    Color space                    : YUV

    Chroma subsampling             : 4:2:0

    Bit depth                      : 8 bits

    Scan type                      : Progressive

    Bits/(Pixel*Frame)             : 0.055

    Stream size                    : 783 MiB (82%)

    Title                          : GOPISAHI

    Writing library                : x264 core 123 r2189 35cf912

    Audio #1

    Format                         : AAC LC

    Duration                       : 2 h 0 min

    Bit rate                       : 96.0 kb/s

    Channel(s)                     : 2 channels

    Channel layout                 : L R

    Sampling rate                  : 48.0 kHz

    Frame rate                     : 46.875 FPS (1024 SPF)

    Compression mode               : Lossy

    Delay relative to video        : -83 ms

    Stream size                    : 83.1 MiB (9%)

    Title                          : GOPISAHI

    Language                       : Hindi

    Audio #2

    Format                         : AAC LC

    Duration                       : 2 h 0 min

    Bit rate                       : 93.7 kb/s

    Channel(s)                     : 2 channels

    Channel layout                 : L R

    Sampling rate                  : 48.0 kHz

    Frame rate                     : 46.875 FPS (1024 SPF)

    Compression mode               : Lossy

    Delay relative to video        : -83 ms

    Stream size                    : 80.6 MiB (8%)

    Title                          : GOPISAHI

    Language                       : English

    Text

    Language                       : English

    Menu

    00:00:00.000                   : en:Chapter 1

    00:03:37.008                   : en:Chapter 2

    00:09:55.261                   : en:Chapter 3

    00:13:50.496                   : en:Chapter 4

    00:21:53.646                   : en:Chapter 5

    00:31:17.542                   : en:Chapter 6

    00:37:19.320                   : en:Chapter 7

    00:46:58.733                   : en:Chapter 8

    00:54:36.690                   : en:Chapter 9

    01:06:12.927                   : en:Chapter 10

    01:09:57.652                   : en:Chapter 11

    01:16:48.395                   : en:Chapter 12

    01:24:59.553                   : en:Chapter 13

    01:31:35.198                   : en:Chapter 14

    01:42:36.942                   : en:Chapter 15

    01:50:03.597                   : en:Chapter 16

    image

    image

    image


    More at ibit.to
    And ibit.uno
    And ibit.ws

    Reviews

    > Its a sci-fi age and robot rules. It came as a little surprise. Obviously I was looking for this film, but not expected to reach at this level. The film was really brilliant despite the influence of plenty of other films. Yes, the ideas were borrowed from the movies like 'Short Circuit', 'I, Robot', 'RoboCop', Real Steel', "Bicentennial Man', 'Transcendence', et cetera. But that did not bother me at all. I would call it an inspiration to make a new product out that already existed. It was not completely depended on Dev Patel's role, otherwise woulda been a disaster. Its the Hugh Jackman, eventhough his character was not on the frontline, because of his presence, the movie was filled with some exciting and thrilling moment. His role was pretty much same to 'Real Steal', but showed in a different shade. Silly concept, even dialogues were so stupid. I don't know, maybe because of the South African accent. But the screenplay was very good. Fast and gets the point quickly than wasting time for buildups. One of the best robot movie and it will be remembered. Looks like the sequel will be more furious and going to be an action packed item, if there will be one. Worth to watch it at least once. 7.5/10

    Comments

    Files

    Chappie 2015 x264 720p Esub BluRay Dual Audio English Hindi GOPISAHI.mkv 950 MB

    Stream

    Downloading Seeding Chappie 2015 x264 720p Esub BluRay Dual Audio English Hindi GOPISAHI.mkv from to 0 peers.
    of
    0 b/s / ↗0 b/s