• 0
  • 0
  • 1,081
  • done
Anonymous Downloadondemand_video
Warning! Use a VPN When Downloading Torrents!
Your IP Address is ,
Your Internet Provider can see when you download torrents! Hide your IP ADDRESS with a VPN
We strongly recommend hide.me VPN to hide your torrenting. It's FREE!
DOWNLOAD VPN
59%

Carrie (2013)

  • Drama Horror
  • A reimagining of the classic horror tale about Carrie White, a shy girl outcast by her peers and sheltered by her deeply religious mother, who unleashes telekinetic terror on her small town after being pushed too far at her senior prom.

    expand_more
    English
  • $30,000,000
  • Description

    Quote:

    __

    **Carrie (2013) 720p BluRay x264 Dual Audio [English + Hindi] 927 MB MoviezAddiction

    image
    Seed Will Be Slow Visit Our Site For Instant Download

    Visit & Support www.MoviezAddiction.website

    Reliable & Cheapest Web Services From HostNetIndia

    Encoded & Uploaded by BestBuyRdp**

    __

    **Carrie (2013) 720p BluRay x264 Dual Audio [English + Hindi] 927 MB MoviezAddiction

    image

    Take It Or Leave It
    Like Our Work Just leave Only 1 Valuable Comment

    Keep Visit and Support https://moviezaddiction.website

    image
    General

    Unique ID                   : 160834491537107054972420585244495146258 (0x78FF98A95B06F59702D589DB68576D12)

    Format                      : Matroska

    Format version              : Version 4 / Version 2

    File size                   : 897 MiB

    Duration                    : 1 h 40 min

    Overall bit rate            : 1 242 kb/s

    Movie name                  : www.MoviezAddiction.website

    Encoded date                : UTC 2018-04-24 17:02:27

    Writing application         : mkvmerge v22.0.0 ('At The End Of The World') 32-bit

    Writing library             : libebml v1.3.5 + libmatroska v1.4.8

    Video

    ID                          : 1

    Format                      : AVC

    Format/Info                 : Advanced Video Codec

    Format profile              : [email protected]
    Format settings             : CABAC / 4 Ref Frames

    Format settings, CABAC      : Yes

    Format settings, ReFrames   : 4 frames

    Codec ID                    : V_MPEG4/ISO/AVC

    Duration                    : 1 h 40 min

    Bit rate                    : 956 kb/s

    Width                       : 1 280 pixels

    Height                      : 544 pixels

    Display aspect ratio        : 2.35:1

    Frame rate mode             : Constant

    Frame rate                  : 23.976 (24000/1001) FPS

    Original frame rate         : 23.976 (23976/1000) FPS

    Color space                 : YUV

    Chroma subsampling          : 4:2:0

    Bit depth                   : 8 bits

    Scan type                   : Progressive

    Bits/(Pixel*Frame)          : 0.057

    Stream size                 : 690 MiB (77%)

    Writing library             : x264 core 132 r2 76a5c3a

    Default                     : Yes

    Forced                      : No

    Color range                 : Limited

    Color primaries             : BT.709

    Matrix coefficients         : BT.709

    Audio #1

    ID                          : 2

    Format                      : AAC

    Format/Info                 : Advanced Audio Codec

    Format profile              : LC

    Codec ID                    : A_AAC-2

    Duration                    : 1 h 40 min

    Bit rate                    : 93.8 kb/s

    Channel(s)                  : 2 channels

    Channel positions           : Front: L R

    Sampling rate               : 48.0 kHz

    Frame rate                  : 46.875 FPS (1024 SPF)

    Compression mode            : Lossy

    Stream size                 : 67.7 MiB (8%)

    Language                    : English

    Default                     : No

    Forced                      : No

    Audio #2

    ID                          : 3

    Format                      : AAC

    Format/Info                 : Advanced Audio Codec

    Format profile              : LC

    Codec ID                    : A_AAC-2

    Duration                    : 1 h 40 min

    Bit rate                    : 192 kb/s

    Channel(s)                  : 2 channels

    Channel positions           : Front: L R

    Sampling rate               : 48.0 kHz

    Frame rate                  : 46.875 FPS (1024 SPF)

    Compression mode            : Lossy

    Stream size                 : 137 MiB (15%)

    Language                    : Hindi

    Default                     : Yes

    Forced                      : Yes

    image

    The outcast teenager Carrie White is bullied by her classmates at high school. Her mother, Margaret White, is a pious and paranoid woman that sees sin everywhere and the need of self-inflicting punishment. When Carrie has her first period, she does not understand what is happening to her and her classmates humiliate her in the changing room. The spiteful Chris Hargensen videotapes Carrie with her cell phone and posts it on the Internet. Their teacher Ms. Desjardin punishes the students, but when Chris challenges her, she is suspended and consequently is banned from the prom. Meanwhile, Carrie discovers that she has telekinesis and learns how to control her ability. Sue Snell, one of the girls that tormented Carrie, feels bad and asks her boyfriend Tommy Ross to invite Carrie to go with him to the prom to make up for what she did to Carrie. But Chris and her boyfriend Billy Nolan plot an evil prank with her friends to seek vengeance for Carrie

    image

    image
    image
    image
    image
    image
    image
    image

    image
    image**


    More at ibit.to
    And ibit.uno
    And ibit.ws

    Reviews

    In this remake of the 1976 cult horror classic, Director Kimberly Peirce tactfully repaints the repressed and bullied and telekinetic Carrie (Chloe Grace Moretz) exacts revenge upon her fellow prom-nighters. Julianne Moore seizes the day as Carrie's fundamentalist and demonically cruel mother http://www.ihavenet.com/movies/Carrie-Movie-Review---Chloe-Moretz-and-Julianne-Moore.html

    It was a loooong time since I watched the original Carrie movie. I was never a real fan of the original. I thought it took too long to get going and the ending was too tragic. But then, I was rather young when I watched it. Yesterday I sat down and watched the remake. I have to say that I found it surprisingly good. Sure, the actual story of the movie with the poor girl being bullied by these school assholes, or in particular one asshole, cannot be said to be a story that really appeals to me. It is a rather depressing and frustrating story to say the least. It is a movie that, I myself at least, watched for the outbreaks of telekinetic special effects. Having said that, I think that both Chloë Grace Moretz and Julianne Moore made commendable performances. Especially Julianne Moore who really made me riled up and squirm from frustration in my seat when she got started with her insane religious nonsense. A remake is of course always at somewhat of a disadvantage in that you already know the general story and thus pretty much know what is going to happen. Thus I liked that they had splattered outbursts of telekinetic powers (= special effects) fairly liberally also in the early parts of the movie. I do not remember that Carrie was showing very much of her powers until the very end in the original. For me this made the movie more interesting to watch as it would have been both boring and frustrating if it had been nothing more than the bullies, and Carrie’s crazy mother, harassing Carrie until the very end. The end, well I still think it is a rather sad one. I would have been much happier if Carrie would have gotten her revenge and somehow survived but then, that would have been too much of not-following-the-book instead so I guess I have to live with the depressing ending. On the whole I am positively surprised by the movie. It is a remake that adds modern flavor and special effects without destroying the general look and feel of the original.

    Comments

    2 years ago

    Thankx Bhai ye movie krne ke liye ;)

    Files

    [www.MoviezAddiction.website] Carrie (2013) 720p BluRay x264 [English + Hindi] 927 MB [www.MoviezAddiction.website].mkv 897 MB
    Thanks Note.txt 900 B
    MoviezAddiction.Website.txt 200 B
    MoviezAddiction - Download Watch Online.url 100 B
    MoviezAddiction - Download Watch Online.url 58 B
    [www.MoviezAddiction.website] Carrie (2013) 720p BluR 897 MB
    MoviezAddiction Download Watch Online.url 58 B

    Stream

    Downloading Seeding Carrie (2013) 720p BluRay x264 Dual Audio [English + Hindi] 927 MB [www.MoviezAddiction.website] from to 0 peers.
    of
    0 b/s / ↗0 b/s