• 0
  • 0
  • 46
  • done
Anonymous Downloadondemand_video
  • Captain America: The First Avenger (2011) (1080p x265 HEVC 10bit AAC 5.1) [Prof]
  • 5.4 GB
  • Prof
  • Captain America Avenger 2011 1080p x265 HEVC 10bit Prof
  • English
  • HEVC/x265
Warning! Use a VPN When Downloading Torrents!
Your IP Address is ,
Your Internet Provider can see when you download torrents! Hide your IP ADDRESS with a VPN
We strongly recommend hide.me VPN to hide your torrenting. It's FREE!
DOWNLOAD VPN
69%

Captain America: The First Avenger (2011)

  • Action Adventure Science Fiction
  • During World War II, Steve Rogers is a sickly man from Brooklyn who's transformed into super-soldier Captain America to aid in the war effort. Rogers must stop the Red Skull – Adolf Hitler's ruthless head of weaponry, and the leader of an organization that intends to use a mysterious device of untold powers for world domination.

    expand_more
    English
  • $140,000,000
  • Description

    Format : Matroska

    Format version : Version 4 / Version 2

    File size : 5.39 GiB

    Duration : 2 h 4 min

    Overall bit rate : 6 212 kb/s

    Movie name : Captain America The First Avenger

    Encoded date : UTC 2018-04-12 03:30:33

    Writing application : mkvmerge v9.6.0 ('Slave To Your Mind') 64bit

    Writing library : libebml v1.3.4 + libmatroska v1.4.5

    Video

    ID : 1

    Format : HEVC

    Format/Info : High Efficiency Video Coding

    Format profile : Main [email protected]@Main

    Codec ID : V_MPEGH/ISO/HEVC

    Duration : 2 h 4 min

    Bit rate : 5 286 kb/s

    Width : 1 920 pixels

    Height : 1 080 pixels

    Display aspect ratio : 16:9

    Frame rate mode : Constant

    Frame rate : 23.976 (24000/1001) FPS

    Color space : YUV

    Chroma subsampling : 4:2:0

    Bit depth : 10 bits

    Bits/(Pixel*Frame) : 0.106

    Stream size : 4.59 GiB (85%)

    Writing library : x265 2.1+69-c97c64ab8b8e:[Windows][GCC 6.2.0][64 bit] 10bit

    Encoding settings : cpuid=1173503 / frame-threads=2 / numa-pools=4 / wpp / no-pmode / no-pme / no-psnr / no-ssim / log-level=2 / input-csp=1 / input-res=1920x1080 / interlace=0 / total-frames=178660 / level-idc=0 / high-tier=1 / uhd-bd=0 / ref=4 / no-allow-non-conformance / no-repeat-headers / annexb / no-aud / no-hrd / info / hash=0 / no-temporal-layers / open-gop / min-keyint=23 / keyint=250 / bframes=4 / b-adapt=2 / b-pyramid / bframe-bias=0 / rc-lookahead=25 / lookahead-slices=4 / scenecut=40 / no-intra-refresh / ctu=64 / min-cu-size=8 / rect / no-amp / max-tu-size=32 / tu-inter-depth=1 / tu-intra-depth=1 / limit-tu=0 / rdoq-level=2 / signhide / no-tskip / nr-intra=0 / nr-inter=0 / no-constrained-intra / strong-intra-smoothing / max-merge=3 / limit-refs=3 / limit-modes / me=3 / subme=3 / merange=57 / temporal-mvp / weightp / no-weightb / no-analyze-src-pics / deblock=0:0 / sao / no-sao-non-deblock / rd=4 / no-early-skip / rskip / no-fast-intra / no-tskip-fast / no-cu-lossless / no-b-intra / rdpenalty=0 / psy-rd=2.00 / psy-rdoq=1.00 / no-rd-refine / analysis-mode=0 / no-lossless / cbqpoffs=0 / crqpoffs=0 / rc=crf / crf=18.0 / qcomp=0.60 / qpstep=4 / stats-write=0 / stats-read=0 / ipratio=1.40 / pbratio=1.30 / aq-mode=1 / aq-strength=1.00 / cutree / zone-count=0 / no-strict-cbr / qg-size=32 / no-rc-grain / qpmax=69 / qpmin=0 / sar=0 / overscan=0 / videoformat=5 / range=0 / colorprim=2 / transfer=2 / colormatrix=2 / chromaloc=0 / display-window=0 / max-cll=0,0 / min-luma=0 / max-luma=1023 / log2-max-poc-lsb=8 / vui-timing-info / vui-hrd-info / slices=1 / opt-qp-pps / opt-ref-list-length-pps / no-multi-pass-opt-rps / scenecut-bias=0.05

    Default : Yes

    Forced : No

    Audio

    ID : 2

    Format : AAC

    Format/Info : Advanced Audio Codec

    Format profile : LC

    Codec ID : A_AAC

    Duration : 2 h 4 min

    Bit rate : 906 kb/s

    Channel(s) : 6 channels

    Channel positions : Front: L C R, Side: L R, LFE

    Sampling rate : 48.0 kHz

    Frame rate : 46.875 FPS (1024 spf)

    Compression mode : Lossy

    Delay relative to video : 9 ms

    Stream size : 805 MiB (15%)

    Language : English

    Default : No

    Forced : No

    Text #1

    ID : 3

    Format : PGS

    Muxing mode : zlib

    Codec ID : S_HDMV/PGS

    Codec ID/Info : Picture based subtitle format used on BDs/HD-DVDs

    Duration : 2 h 2 min

    Bit rate : 8 163 b/s

    Count of elements : 2408

    Stream size : 7.16 MiB (0%)

    Language : English

    Default : No

    Forced : No

    Text #2

    ID : 4

    Format : PGS

    Muxing mode : zlib

    Codec ID : S_HDMV/PGS

    Codec ID/Info : Picture based subtitle format used on BDs/HD-DVDs

    Duration : 8 s 842 ms

    Bit rate : 16.3 kb/s

    Count of elements : 10

    Stream size : 17.6 KiB (0%)

    Language : English

    Default : No

    Forced : No

    Text #3

    ID : 5

    Format : PGS

    Muxing mode : zlib

    Codec ID : S_HDMV/PGS

    Codec ID/Info : Picture based subtitle format used on BDs/HD-DVDs

    Duration : 2 h 2 min

    Bit rate : 9 294 b/s

    Count of elements : 2732

    Stream size : 8.16 MiB (0%)

    Language : English

    Default : No

    Forced : No

    Menu

    00:00:00.000 : en:Chapter 01

    00:08:12.158 : en:Chapter 02

    00:14:56.812 : en:Chapter 03

    00:24:21.543 : en:Chapter 04

    00:30:39.128 : en:Chapter 05

    00:38:39.859 : en:Chapter 06

    00:45:52.166 : en:Chapter 07

    00:51:58.156 : en:Chapter 08

    00:57:55.638 : en:Chapter 09

    01:03:59.293 : en:Chapter 10

    01:12:22.588 : en:Chapter 11

    01:19:10.662 : en:Chapter 12

    01:28:27.051 : en:Chapter 13

    01:33:53.002 : en:Chapter 14

    01:42:20.342 : en:Chapter 15

    01:50:45.055 : en:Chapter 16

    01:53:46.319 : en:Chapter 17

    image


    More at ibit.to
    And ibit.uno
    And ibit.am
    And ibit.ws

    Reviews

    True to "Captain America," this is the modern (comic book) version of the All American movie. Good guys versus bad guys without a lot of ambiguity. _**NOTHING WRONG WITH THAT**_. This movie is pretty much perfection for the genre. Entertaining A to Z story with high-end Hollywood professional movie making throughout.

    **This is a long form review initially published in 2011:** Though it ran at over two hours, I did feel that it had plenty of room to go further than it did. I honestly felt like Red Skull could have had a film all to himself, and actually kind of suffered for making him as intriguing as he was. Chris Evans was an interesting choice as the titular role of Captain America, given that he's already played American sweetheart Marvel Super Hero "The Human Torch" in _Fantastic 4_ and _Fantastic 4: Rise of the Silver Surfer_. He didn't Oh-My-Gosh blow me away type-thing or what have you, but he was pretty great. So far in the Marvel Cinematic Universe, I'd slot Captain America clean in the middle. I liked _Iron Man_ and _Thor_ more, but _Iron Man 2_ and _The Incredible Hulk_ less. Marvel Studios stated that the movie they wanted to make was set in the 40's, even though the rest of Marvel Cinematic is modern-day. This was 100% the right move to make, why? Not because of the setting, aesthetics or direction, but because it's fuckin' smart. How do you have the world appreciate an Uncle-Sam loving upper-middle class white male military blindly-loyal patriot? You make him fight the God damn Nazis, that's how. It may seem strange, but I actually enjoyed the opening of _Captain America_ the most, which he spends a a meek, asthmatic Steve Rogers, yet to undergo the Deus Ex Machina Super Serum. It really showed the best of Evans acting ability, as well as the writing of Christopher Markus and Stephen McFeely whom together wrote _You Kill Me_ and The _The Chronicles of Narnia_ Trilogy. I watched it in 3D, which was more bearable than usual. As the films of MCU progress, each of them becomes more and more a prequel to _The Avengers_, _Captain America_ being the most to date. Despite its almost-entire lack of _Avenger_ cameos, this more than previous films felt like a prequel for what's to come, which is not strictly speaking a good thing. I had plenty of minor issues with _Captain America_, and though their was quite a number of them, all were minor, and ultimately, the only part of me that regrets watching it was the part that keeps thinking "My fucking God, I have to wait a YEAR before _Avengers_ comes out?!" 79% -Gimly

    PLOT Steve Rogers, a scrawny young man, wants to enlist in the US Army and go overseas to fight in WWII. But his size and health means his attempts at enlistment always end the same way -- a 4F rating. Until a scientist sees him and recruits him to try out for a special training program to create a super soldier. WHAT I LIKED The Marvel universe sticks pretty close to classic script with him being given a serum that jacks his body into super muscle mode. He's already brave and smart, so it would seem like a no-brainer to send him overseas? But the guy in charge of his training doesn't want him, he's just one man, so Rogers ends up doing public relations back home. And he is quite shocked that the men overseas don't react as positively when they see him as the crowds back home. I really enjoyed the way they handle the first battle scene for him, basically him figuring things out as he goes, a far cry from his battle-hardened approaches later. I even liked his interactions with Agent Carter. I had thought it would be more subtle than it was, and I hoped we'd see a bit more of her operating on her own (after all, they gave her character a whole series on TV!), but she was second fiddle to the hero. WHAT I DIDN'T LIKE The challenge with a lot of American movies of the war is that it is as if they are the only actors in the war, no allies, just them, and that level of nationalistic narrowmindedness is a bit grating. That may be a small gripe when the show is called CAPTAIN AMERICA, not CAPTAIN OF WORKING WITH ALLIES, but still, it's annoying. I also was disappointed there wasn't a lot more on Red Skull. His history, his abilities, other pursuits, all of it was left basically unreferenced. Sure, some of it shows up elsewhere in the Marvel universe, but a bit more crosswalk would have been nice. I felt he really wasn't that well-fleshed out as the uber villain he could have been. THE BOTTOM LINE / TWEET As an origin story, it lacks pizazz

    Definitely the most underrated of all the MCU films, Captain America: The First Avenger is a great war film done comic book style about a little guy making a big difference. Red Skull is one of the better villains simply because of how fantastic Hugo Weaving is. Peggy Carter is a great heroine and Hayley Atwell's performance is an absolute joy. Also, Tommy Lee Jones and Stanley Tucci light up the screen whenever they're on. With strong action scenes, nicely developed characters, and seamless CGI, Captain America: The First Avenger is perfectly fine as a stand alone film. Shameful that so many audiences were just going out of obligation for The Avengers, because this movie has a lot to offer.

    Comments

    2 years ago

    Thanks Prof !

    Files

    [Prof] Captain America - The First Avenger (2011)/[Prof] Captain America - The First Avenger.mkv 5.4 GB

    Stream

    Downloading Seeding Captain America: The First Avenger (2011) (1080p x265 HEVC 10bit AAC 5.1) [Prof] from to 0 peers.
    of
    0 b/s / ↗0 b/s