• 2
  • 0
Sponsored Downloadondemand_video
  • CHRISTOPHER_ROBIN
  • 1.6 GB
  • dascubadude
  • CHRISTOPHER ROBIN
  • English
  • HD 1080p
74%

Christopher Robin (2018)

  • Adventure Comedy Family Fantasy
  • Christopher Robin, the boy who had countless adventures in the Hundred Acre Wood, has grown up and lost his way. Now it’s up to his spirited and loveable stuffed animals, Winnie The Pooh, Tigger, Piglet, and the rest of the gang, to rekindle their friendship and remind him of endless days of childlike wonder and make-believe, when doing nothing was the very best something.

    expand_more
    English
  • $75,000,000
  • Description

    General

    Complete name                            : CHRISTOPHER_ROBIN.Title800.mp4

    Format                                   : MPEG-4

    Format profile                           : Base Media / Version 2

    Codec ID                                 : mp42 (mp42/isom/avc1)

    File size                                : 1.64 GiB

    Duration                                 : 1 h 43 min

    Overall bit rate mode                    : Variable

    Overall bit rate                         : 2 253 kb/s

    Movie name                               : CHRISTOPHER_ROBIN.Title800

    Album                                    : CHRISTOPHER_ROBIN

    Encoded date                             : UTC 2019-06-11 23:34:11

    Tagged date                              : UTC 2019-06-12 00:47:01

    Writing application                      : DVDFab 11.0.3.4

    Cover                                    : Yes

    Video

    ID                                       : 1

    Format                                   : AVC

    Format/Info                              : Advanced Video Codec

    Format profile                           : [email protected]

    Format settings                          : CABAC / 2 Ref Frames

    Format settings, CABAC                   : Yes

    Format settings, RefFrames               : 2 frames

    Format settings, GOP                     : M=1, N=24

    Codec ID                                 : avc1

    Codec ID/Info                            : Advanced Video Coding

    Duration                                 : 1 h 43 min

    Bit rate mode                            : Variable

    Bit rate                                 : 1 779 kb/s

    Maximum bit rate                         : 2 776 kb/s

    Width                                    : 1 920 pixels

    Height                                   : 804 pixels

    Display aspect ratio                     : 2.40:1

    Frame rate mode                          : Constant

    Frame rate                               : 23.976 (24000/1001) FPS

    Color space                              : YUV

    Chroma subsampling                       : 4:2:0

    Bit depth                                : 8 bits

    Scan type                                : Progressive

    Bits/(Pixel*Frame)                       : 0.048

    Stream size                              : 1.29 GiB (79%)

    Encoded date                             : UTC 2019-06-11 23:34:11

    Tagged date                              : UTC 2019-06-12 00:47:01

    Color primaries                          : BT.709

    Transfer characteristics                 : BT.709

    Matrix coefficients                      : BT.709

    Menus                                    : 5

    Audio

    ID                                       : 2

    Format                                   : AAC

    Format/Info                              : Advanced Audio Codec

    Format profile                           : LC

    Codec ID                                 : mp4a-40-2

    Duration                                 : 1 h 43 min

    Bit rate mode                            : Variable

    Bit rate                                 : 452 kb/s

    Channel(s)                               : 6 channels

    Channel positions                        : Front: L C R, Side: L R, LFE

    Sampling rate                            : 48.0 kHz

    Frame rate                               : 46.875 FPS (1024 SPF)

    Compression mode                         : Lossy

    Stream size                              : 333 MiB (20%)

    Title                                    : English (aac 5.1)

    Language                                 : English

    Default                                  : Yes

    Alternate group                          : 1

    Encoded date                             : UTC 2019-06-11 23:34:11

    Tagged date                              : UTC 2019-06-12 00:47:01

    Text #1

    ID                                       : 3

    Format                                   : VobSub

    Codec ID                                 : mp4s-E0

    Codec ID/Info                            : The same subtitle format used on DVDs

    Duration                                 : 1 h 41 min

    Bit rate mode                            : Variable

    Bit rate                                 : 10.4 kb/s

    Maximum bit rate                         : 4 249 Mb/s

    Stream size                              : 7.51 MiB (0%)

    Language                                 : English

    Default                                  : Yes

    Forced                                   : No

    Alternate group                          : 2

    Encoded date                             : UTC 2019-06-11 23:34:11

    Tagged date                              : UTC 2019-06-12 00:45:21


    More at ibit.to
    And ibit.uno
    And ibit.ws

    Reviews

    Not only was that **so fuckin' cute**, I also absolutely support its Oscar nomination for visual effects. Owl and Rabbit were less stellar, but all of the stuffed animals, most especially Whinnie the Pooh, looked **incredible**. _Final rating:★★★ - I liked it. Would personally recommend you give it a go._

    ***Simple and cute*** Christopher Robin (Ewan McGregor) is in his 40s, married with a daughter, and working the joyless grind in London when his pal Winnie-the-Pooh unexpectedly shows up. He takes the stuffed animal back to his childhood haunts in Hundred Acre Wood to find Pooh’s other stuffed animal friends. Hayley Atwell and Bronte Carmichael play Christopher’s wife and daughter. Released in 2018, "Christopher Robin" is a decent live-action rendering of A.A. Milne’s popular characters with the twist that Christopher is an adult rediscovering his childhood friends and the simple joys thereof. The theme of escaping the work grind and getting your inspiration back recalls “Joe Versus the Volcano” (1990), “City Slickers” (1991) and probably a gazillion other flicks. The stuffed animal critters are ultra-cute, the story is simple and the English cinematography is exquisite. I would’ve preferred a more gripping story, but I think the creators kept it simple on purpose. The film runs 1 hour, 44 minutes and was shot entirely in England (London, Berkshire, Kent & East Sussex). GRADE: B-/C+

    Comments

    Files

    CHRISTOPHER_ROBIN.Title800.mp4 1.6 GB
    mark.gif 208 kB
    screenshot233.jpg 63 kB
    screenshot234.jpg 45 kB
    screenshot237.jpg 41 kB
    screenshot238.jpg 51 kB

    Stream

    Downloading Seeding CHRISTOPHER_ROBIN from to 0 peers.
    of
    0 b/s / ↗0 b/s