• 1,787
  • 25
  • done
Secure Download
  • Bumblebee_2018_WEBRip_MVO_by_Dalemake.avi
  • 1.5 GB
  • dalemake
  • Bumblebee 2018 WEBRip MVO Dalemake avi
  • Зарубежное кино
64%

Bumblebee (2018)

  • Action Adventure Science Fiction
  • On the run in the year 1987, Bumblebee finds refuge in a junkyard in a small Californian beach town. Charlie, on the cusp of turning 18 and trying to find her place in the world, discovers Bumblebee, battle-scarred and broken. When Charlie revives him, she quickly learns this is no ordinary yellow VW bug.

    expand_more
    English

    Description

    Бамблби / Bumblebee

    «У каждого приключения есть начало»


    image

    Год выхода: 2018

    Страна : США

    Жанр : фантастика, боевик, приключения

    Продолжительность : 1:54:00

    Перевод : Профессиональный (многоголосый закадровый) СВ Студия

    Субтитры : Корейские (замазаны)


    Режиссер :
    Трэвис Найт / Travis Knight


    В ролях :
    Дилан О’Брайен, Хейли Стайнфелд, Хорхе Лендеборг мл., Джон Сина, Джейсон Йен Дракер, Памела Адлон, Стивен Шнайдер, Рикардо Хойос, Джон Ортис, Глинн Тёрмен


    Описание :
    1987 год. Скрываясь от преследования, Бамблби находит убежище на автомобильной свалке в калифорнийском городке, где живет Чарли. Девушке скоро исполнится 18, она стремится найти свое место в жизни. И именно она наталкивается на покореженного и сломленного Бамблби. Приведя его в чувство, Чарли моментально осознает: на ее пути оказался не простой желтый Фольксваген Жук…


    Релиз групп

    image | image | IMDB | КиноПоиск | Сэмпл |


    Качество:

    WEBRip

    Формат: AVI

    Видео : 688x384 (1.79:1), 24.000 fps, XviD build 67 ~1620 kbps avg, 0.26 bit/pixel

    Аудио: 48 kHz, AC3 Dolby Digital, 2/0 (L,R) ch, ~192 kbps avg


    Скриншоты

    image


    imageimageimageimage

    MediaInfo

    Код:

    Полное имя                               : D:Bumblebee2018WEBRipMVOby_Dalemake.avi
    Формат                                   : AVI
    Формат/Информация                        : Audio Video Interleave
    Размер файла                             : 1,45 Гбайт
    Продолжительность                        : 1 ч. 54 м.
    Общий поток                              : 1822 Кбит/сек
    Программа кодирования                    : VirtualDubMod 1.5.10.3 | www.virtualdub-fr.org || (build 2550/release)
    Библиотека кодирования                   : VirtualDubMod build 2550/release

    Видео
    Идентификатор                            : 0
    Формат                                   : MPEG-4 Visual
    Профиль формата                          : Advanced [email protected]
    Параметр BVOP формата                    : 1
    Параметр QPel формата                    : Нет
    Параметр GMC формата                     : Без точки перехода
    Параметр матрицы формата                 : Выборочная
    Идентификатор кодека                     : XVID
    Идентификатор кодека/Подсказка           : XviD
    Продолжительность                        : 1 ч. 54 м.
    Битрейт                                  : 1620 Кбит/сек
    Ширина                                   : 688 пикселей
    Высота                                   : 384 пикселя
    Соотношение сторон                       : 16:9
    Частота кадров                           : 24,000 кадра/сек
    Цветовое пространство                    : YUV
    Субдискретизация насыщенности            : 4:2:0
    Битовая глубина                          : 8 бит
    Тип развёртки                            : Прогрессивная
    Метод сжатия                             : С потерями
    Бит/(Пиксели*Кадры)                      : 0.256
    Размер потока                            : 1,29 Гбайт (89%)
    Библиотека кодирования                   : XviD 67

    Аудио
    Идентификатор                            : 1
    Формат                                   : AC-3
    Формат/Информация                        : Audio Coding 3
    Расширение режима                        : CM (complete main)
    Параметр Endianness формата              : Big
    Идентификатор кодека                     : 2000
    Продолжительность                        : 1 ч. 54 м.
    Вид битрейта                             : Постоянный
    Битрейт                                  : 192 Кбит/сек
    Каналы                                   : 2 канала
    Расположение каналов                     : Front: L R
    Частота                                  : 48,0 КГц
    Битовая глубина                          : 16 бит
    Метод сжатия                             : С потерями
    Размер потока                            : 157 Мбайт (11%)
    Выравнивание                             : Разделение по промежуткам
    Продолжительность промежутка             : 42  мс. (1,00 видеокадр)
    Время предзагрузки промежутка            : 500  мс.


    При появлении качества рип будет перезалит!



    More at ibit.to
    And ibit.uno
    And ibit.ws

    Reviews

    Comments

    Files

    Bumblebee_2018_WEBRip_MVO_by_Dalemake.avi 1.6 GB

    Stream

    Downloading Seeding Bumblebee_2018_WEBRip_MVO_by_Dalemake.avi from to 0 peers.
    of
    0 b/s / ↗0 b/s