• 23
  • 25
  • done
Anonymous Downloadondemand_video
  • Bumblebee (2018) 1080p 5.1 - 2.0 x264 Phun Psyz.mp4
  • 2.1 GB
  • phunpsyz
  • Bumblebee 2018 1080p x264 Phun Psyz mp4
  • English
  • HD 1080p
Warning! Use a VPN When Downloading Torrents!
Your IP Address is ,
Your Internet Provider can see when you download torrents! Hide your IP ADDRESS with a VPN
We strongly recommend Trust.Zone VPN to hide your torrenting. It's FREE!
DOWNLOAD VPN
65%

Bumblebee (2018)

  • Action Adventure Science Fiction
  • On the run in the year 1987, Bumblebee finds refuge in a junkyard in a small Californian beach town. Charlie, on the cusp of turning 18 and trying to find her place in the world, discovers Bumblebee, battle-scarred and broken. When Charlie revives him, she quickly learns this is no ordinary yellow VW bug.

    expand_more
    English
  • $135,000,000
  • Description

    www.imdb.com/title/tt4701182/

    On the run in the year of 1987, Bumblebee finds refuge in a junkyard in a small Californian beach town. Charlie, on the cusp of turning 18 and trying to find her place in the world, discovers Bumblebee, battle-scarred and broken.

    Source: NTG (Amzn)

    image

    image

    image

    image

    image

    Format                      : MPEG-4

    Format profile              : Base Media / Version 2

    Codec ID                    : mp42 (isom/iso2/avc1/mp41)

    File size                   : 2.10 GiB

    Duration                    : 1 h 53 min

    Overall bit rate mode       : Variable

    Overall bit rate            : 2 645 kb/s

    Writing application         : HandBrake 1.2.0 2018121700

    Video

    ID                          : 1

    Format                      : AVC

    Format/Info                 : Advanced Video Codec

    Format profile              : [email protected]

    Format settings             : CABAC / 1 Ref Frames

    Format settings, CABAC      : Yes

    Format settings, ReFrames   : 1 frame

    Codec ID                    : avc1

    Codec ID/Info               : Advanced Video Coding

    Duration                    : 1 h 53 min

    Bit rate                    : 2 156 kb/s

    Width                       : 1 920 pixels

    Height                      : 1 080 pixels

    Display aspect ratio        : 16:9

    Frame rate                  : 23.976 (24000/1001) FPS

    Color space                 : YUV

    Chroma subsampling          : 4:2:0

    Bit depth                   : 8 bits

    Scan type                   : Progressive

    Bits/(Pixel*Frame)          : 0.043

    Stream size                 : 1.72 GiB (82%)

    Writing library             : x264 core 157 r2935 545de2f

    Audio #1

    ID                          : 2

    Format                      : AC-3

    Format/Info                 : Audio Coding 3

    Commercial name             : Dolby Digital

    Codec ID                    : ac-3

    Duration                    : 1 h 53 min

    Bit rate mode               : Constant

    Bit rate                    : 320 kb/s

    Channel(s)                  : 6 channels

    Channel layout              : L R C LFE Ls Rs

    Sampling rate               : 48.0 kHz

    Frame rate                  : 31.250 FPS (1536 SPF)

    Bit depth                   : 16 bits

    Compression mode            : Lossy

    Stream size                 : 261 MiB (12%)

    Title                       : Surround

    Language                    : English

    Audio #2

    ID                          : 3

    Format                      : AAC LC

    Format/Info                 : Advanced Audio Codec Low Complexity

    Codec ID                    : mp4a-40-2

    Duration                    : 1 h 53 min

    Bit rate mode               : Constant

    Bit rate                    : 161 kb/s

    Channel(s)                  : 2 channels

    Channel layout              : L R

    Sampling rate               : 48.0 kHz

    Frame rate                  : 46.875 FPS (1024 SPF)

    Compression mode            : Lossy

    Stream size                 : 131 MiB (6%)

    Title                       : Stereo

    Language                    : English

    Text 

    Language                    : English

    Default                     : Yes

    Forced                      : No

    Language                    : English

    Default                     : No

    Forced                      : No


    More at ibit.to
    And ibit.uno
    And ibit.ws

    Reviews

    Decent, by the numbers, popcorn movie. Better than the other live action Transformers movie, but still not very good. Best parts were the fight scenes, especially on Cybertron. Otherwise, it was average, 5/10.

    Strong contender for best live-action _Transformers_ movie ever made, but Christ, what a low fuckin' bar that is. The fact it isn't the clear and absolute winner is a devastating criticism. _Final rating:★★½ - Had a lot that appealed to me, didn’t quite work as a whole._

    Comments

    Files

    Bumblebee (2018) 1080p 5.1 - 2.0 x264 Phun Psyz.mp4 2.1 GB
    Bumblebee (2018) 1080p 5.1 2.0 x264 Phun Psyz.mp4 2.1 GB

    Stream

    Downloading Seeding Bumblebee (2018) 1080p 5.1 - 2.0 x264 Phun Psyz.mp4 from to 0 peers.
    of
    0 b/s / ↗0 b/s