• 1
  • 0
Anonymous Downloadondemand_video
  • Brexit.The.Uncivil.War.2019.720p.AMZN.WEB-DL.x265.HEVCBay.com.mkv
  • 348 MB
  • g3m696
  • Brexit Uncivil War 2019 720p AMZN WEB x265 HEVCBay com mkv
  • English
  • HEVC/x265
Warning! Use a VPN When Downloading Torrents!
Your IP Address is ,
Your Internet Provider can see when you download torrents! Hide your IP ADDRESS with a VPN
We strongly recommend hide.me VPN to hide your torrenting. It's FREE!
DOWNLOAD VPN
66%

Brexit: The Uncivil War (2019)

  • History TV Movie Drama
  • Political strategist Dominic Cummings leads a popular but controversial campaign to convince British voters to leave the European Union from 2015 up until the present day.

    expand_more
    English

    Description

    hevcbay.com

    `

    General

    Unique ID                                : 310243988204767240601555916416434636207 (0xE966D195FE51A8A99C7740B8FD2905AF)

    Complete name                            : Brexit.The.Uncivil.War.2019.720p.AMZN.WEB-DL.x265.HEVCBay.com.mkv

    Format                                   : Matroska

    Format version                           : Version 4

    File size                                : 348 MiB

    Duration                                 : 1 h 32 min

    Overall bit rate                         : 526 kb/s

    Movie name                               : Brexit.The.Uncivil.War.2019.720p.AMZN.WEB-DL.x265.HEVCBay.com.mkv

    Encoded date                             : UTC 2019-02-17 03:33:43

    Writing application                      : hevcbay

    Writing library                          : hevcbay.com / Lavf58.22.100

    Comment                                  : Encoded by hevcbay.com

    ENCODED-BY                               : hevcbay.com

    Video

    ID                                       : 1

    Format                                   : HEVC

    Format/Info                              : High Efficiency Video Coding

    Format profile                           : [email protected]@Main

    Codec ID                                 : V_MPEGH/ISO/HEVC

    Duration                                 : 1 h 32 min

    Bit rate                                 : 471 kb/s

    Width                                    : 1 280 pixels

    Height                                   : 720 pixels

    Display aspect ratio                     : 16:9

    Frame rate mode                          : Constant

    Frame rate                               : 25.000 FPS

    Color space                              : YUV

    Chroma subsampling                       : 4:2:0

    Bit depth                                : 8 bits

    Bits/(Pixel*Frame)                       : 0.020

    Stream size                              : 312 MiB (90%)

    Writing library                          : Lavc58.42.102 libx265

    Default                                  : Yes

    Forced                                   : No

    Color range                              : Limited

    Audio

    ID                                       : 2

    Format                                   : AAC LC SBR PS

    Format/Info                              : Advanced Audio Codec Low Complexity with Spectral Band Replication and Parametric Stereo

    Commercial name                          : HE-AACv2

    Format settings                          : NBC

    Codec ID                                 : A_AAC-29

    Duration                                 : 1 h 32 min

    Bit rate                                 : 52.6 kb/s

    Channel(s)                               : 2 channels

    Channel layout                           : C

    Sampling rate                            : 48.0 kHz

    Frame rate                               : 23.438 FPS (2048 SPF)

    Compression mode                         : Lossy

    Delay relative to video                  : -148 ms

    Stream size                              : 34.8 MiB (10%)

    Writing library                          : Lavc58.42.102 libfdk_aac

    Language                                 : English

    Default                                  : Yes

    Forced                                   : No

    `

    image

    image

    image

    image


    More at ibit.to
    And ibit.uno
    And ibit.am
    And ibit.ws

    Reviews

    Comments

    Files

    Brexit.The.Uncivil.War.2019.720p.AMZN.WEB-DL.x265.HEVCBay.com.mkv 348 MB
    Brexit.The.Uncivil.War.2019.720p.AMZN.WEBDL.x265.HEVCBay.com.mkv 348 MB

    Stream

    Downloading Seeding Brexit.The.Uncivil.War.2019.720p.AMZN.WEB-DL.x265.HEVCBay.com.mkv from to 0 peers.
    of
    0 b/s / ↗0 b/s