• 0
  • 0
  • 110
Anonymous Downloadondemand_video
  • Brain on Fire 2016 720p HDRip x264 AAC - MRG
  • 751 MB
  • DDLCrazy
  • Brain 2016 720p HDRip x264
  • English
  • HD
Warning! Use a VPN When Downloading Torrents!
Your IP Address is ,
Your Internet Provider can see when you download torrents! Hide your IP ADDRESS with a VPN
We strongly recommend hide.me VPN to hide your torrenting. It's FREE!
DOWNLOAD VPN
72%

Brain on Fire (2017)

  • Drama
  • Susannah Cahalan, an up-and-coming journalist at the New York Post becomes plagued by voices in her head and seizures, causing a rapid descent into insanity.

    expand_more
    English

    Description

    !image](https://dyncdn.me/mimages/323779/poster_opt.jpg)

    Brain on Fire 2016 720p HDRip x264 AAC - MRG

    Source: FGT

    Format                      : Matroska

    Format version              : Version 4 / Version 2

    File size                   : 751 MiB

    Duration                    : 1 h 28 min

    Overall bit rate            : 1 180 kb/s

    Movie name                  : MRG

    Video

    ID                          : 1

    Format                      : AVC

    Format/Info                 : Advanced Video Codec

    Format profile              : [[email protected]
    Format settings, CABAC      : Yes

    Format settings, ReFrames   : 8 frames

    Codec ID                    : V_MPEG4/ISO/AVC

    Duration                    : 1 h 28 min

    Bit rate                    : 1 050 kb/s

    Width                       : 1 280 pixels

    Height                      : 536 pixels

    Display aspect ratio        : 2.40:1

    Frame rate mode             : Constant

    Frame rate                  : 23.976 (24000/1001) FPS

    Color space                 : YUV

    Chroma subsampling          : 4:2:0

    Bit depth                   : 8 bits

    Scan type                   : Progressive

    Bits/(Pixel*Frame)          : 0.064

    Stream size                 : 668 MiB (89%)

    Writing library             : x264 core 148 r2744 b97ae06

    Encoding settings           : cabac=1 / ref=8 / deblock=1:-1:-1 / analyse=0x3:0x133 / me=umh / subme=9 / psy=1 / psyrd=1.00:0.15 / mixedref=1 / merange=24 / chromame=1 / trellis=2 / 8x8dct=1 / cqm=0 / deadzone=21,11 / fastpskip=0 / chromaqpoffset=-3 / threads=12 / lookaheadthreads=1 / slicedthreads=0 / nr=250 / decimate=1 / interlaced=0 / bluraycompat=0 / constrainedintra=0 / bframes=3 / bpyramid=2 / badapt=2 / bbias=0 / direct=3 / weightb=1 / opengop=0 / weightp=2 / keyint=250 / keyintmin=23 / scenecut=40 / intrarefresh=0 / rclookahead=60 / rc=2pass / mbtree=1 / bitrate=1050 / ratetol=1.0 / qcomp=0.60 / qpmin=0 / qpmax=69 / qpstep=4 / cplxblur=20.0 / qblur=0.5 / ip_ratio=1.40 / aq=1:1.00

    Default                     : Yes

    Forced                      : No

    Audio

    ID                          : 2

    Format                      : AAC

    Format/Info                 : Advanced Audio Codec

    Format profile              : LC

    Codec ID                    : A_AAC

    Duration                    : 1 h 28 min

    Bit rate                    : 128 kb/s

    Channel(s)                  : 2 channels

    Channel positions           : Front: L R

    Sampling rate               : 48.0 kHz

    Frame rate                  : 46.875 FPS (1024 spf)

    Compression mode            : Lossy

    Delay relative to video     : 9 ms

    Stream size                 : 81.4 MiB (11%)

    Language                    : English

    Default                     : Yes

    Forced                      : No

    Menu

    00:00:00.000                : en:1

    00:15:00.000                : en:2

    00:30:00.000                : en:3

    00:45:00.000                : en:4

    01:00:00.000                : en:5

    01:15:00.000                : en:6

    01:24:07.000                : en:7

    image


    More at ibit.to
    And ibit.uno
    And ibit.am
    And ibit.ws

    Reviews

    Comments

    Files

    Brain on Fire 2016 720p HDRip x264 AAC - MRG.mkv 751 MB
    Torrent Downloaded from HDSector.com.txt -

    Stream

    Downloading Seeding Brain on Fire 2016 720p HDRip x264 AAC - MRG from to 0 peers.
    of
    0 b/s / ↗0 b/s