• 5
  • 7
  • done
Sponsored Downloadondemand_video
  • Bird Box (2018) x 1598 (2160p) HDR 5.1 x265 10bit Phun Psyz.mkv
  • 3.5 GB
  • phunpsyz
  • Bird 2018 1598 2160p x265 10bit Phun Psyz
  • English
  • UltraHD/4K
70%

Bird Box (2018)

  • Thriller Drama
  • Five years after an ominous unseen presence drives most of society to suicide, a survivor and her two children make a desperate bid to reach safety.

    expand_more
    English
  • $19,800,000
  • Description

    www.imdb.com/title/tt2737304/

    A woman and a pair of children are blindfolded and make their way through a dystopian setting.

    Source: DEFLATE

    image

    image

    image

    image

    image

    Format                      : Matroska

    Format version              : Version 4 / Version 2

    File size                   : 3.53 GiB

    Duration                    : 2 h 3 min

    Overall bit rate            : 4 081 kb/s

    Video

    ID                          : 1

    Format                      : HEVC

    Format/Info                 : High Efficiency Video Coding

    Format profile              : Main [email protected]@High

    Codec ID                    : V_MPEGH/ISO/HEVC

    Duration                    : 2 h 3 min

    Bit rate                    : 3 680 kb/s

    Width                       : 3 840 pixels

    Height                      : 1 598 pixels

    Display aspect ratio        : 2.40:1

    Frame rate mode             : Constant

    Frame rate                  : 24.000 FPS

    Color space                 : YUV

    Chroma subsampling          : 4:2:0

    Bit depth                   : 10 bits

    Bits/(Pixel*Frame)          : 0.025

    Stream size                 : 3.18 GiB (90%)

    Writing library             : x265 2.6:[Windows][GCC 7.3.0][64 bit] 10bit

    Audio

    ID                          : 2

    Format                      : AC-3

    Format/Info                 : Audio Coding 3

    Commercial name             : Dolby Digital

    Codec ID                    : A_AC3

    Duration                    : 2 h 3 min

    Bit rate mode               : Constant

    Bit rate                    : 320 kb/s

    Channel(s)                  : 6 channels

    Channel layout              : L R C LFE Ls Rs

    Sampling rate               : 48.0 kHz

    Frame rate                  : 31.250 FPS (1536 SPF)

    Bit depth                   : 16 bits

    Compression mode            : Lossy

    Stream size                 : 283 MiB (8%)

    Title                       : Surround

    Language                    : English

    Text 

    Language                    : English

    Language                    : English

    Language                    : Arabic

    Language                    : Bulgarian

    Language                    : Chinese

    Language                    : Chinese

    Language                    : Danish

    Language                    : Dutch

    Language                    : Finnish

    Language                    : French

    Language                    : German

    Language                    : Greek

    Language                    : Italian

    Language                    : Japanese

    Language                    : Korean

    Language                    : Norwegian

    Language                    : Polish

    Language                    : Portuguese

    Language                    : Portuguese

    Language                    : Romanian

    Language                    : Russian

    Language                    : Spanish

    Language                    : Spanish

    Language                    : Swedish

    Language                    : Thai

    Language                    : Turkish

    Default                     : No

    Forced                      : No


    More at ibit.to
    And ibit.uno
    And ibit.ws

    Reviews

    Kind of a _The Happening_ meets _A Quiet Place_, but better than the latter and **way** better than the former. Maybe I didn't get eeeeeeverything I wanted out of _Bird Box_ but I'm still on board. I know that I opened this up by saying the movie is very much like two other movies, but what I liked most about is honestly that it's unlike 99.99% of the horror genre, and that little variation was just what I needed today. _Final rating:★★★½ - I really liked it. Would strongly recommend you give it your time._

    ***Well, at least it doesn’t have zombies*** A mass epidemic strikes Earth which makes people go crazy and commit suicide, but only IF they are not blindfolded and SEE the mysterious phenomena. A group of Californians find succor in an abode with covered windows. One woman (Sandra Bullock) and two children try to make it down a remote river to find sanctuary, blindfolded. Trevante Rhodes and John Malkovich costar. “Bird Box” (2018) is a post-apocalyptic survival adventure/horror with an original concept and elements of flicks like “The Book of Eli” (2010), “The Mist” (2007), “Carriers” (2009) and “Stake Land” (2010). The reason for the apocalypse is what makes “Bird Box” standout and, thankfully, there are no zombies, yet it’s the least of these for a couple of reasons. For one, I didn’t find the dramatic dynamics of the group all that captivating, but it was okay. If you’re a fan of Bullock you’ll probably like this movie more than me. I appreciated Rosa Salazar as Lucy, but her role isn’t that significant. Meanwhile Rhodes and Malkovich are effective. The concept behind the mass crisis is where the movie fails. It’s sort of explained and yet it isn’t. There are too many inconsistencies and what appears to be plot holes. It’s basically a bunch of malarkey and reflects lazy writing. People on message boards debate back-and-forth ad nauseam, but the movie’s too nonsensical and meh to make it worth the effort. The film runs 2 hours and 4 minutes and was shot in Southern Cal (Monrovia, La Puente, Santa Clarita, Smith River, Scripps College and Los Angeles). GRACE: C

    Comments

    Files

    Bird Box (2018) x 1598 (2160p) HDR 5.1 x265 10bit Phun Psyz.mkv 3.5 GB

    Stream

    Downloading Seeding Bird Box (2018) x 1598 (2160p) HDR 5.1 x265 10bit Phun Psyz.mkv from to 0 peers.
    of
    0 b/s / ↗0 b/s