• 7
  • 4
  • 114
  • done
Sponsored Downloadondemand_video
  • Bird Box (2018) 720p English HDRip x264 AAC by Full4movies
  • 1.0 GB
  • shmasti
  • Bird 2018 720p English HDRip x264 Full4movies Box AAC
  • English
  • HD
70%

Bird Box (2018)

  • Thriller Drama
  • Five years after an ominous unseen presence drives most of society to suicide, a survivor and her two children make a desperate bid to reach safety.

    expand_more
    English
  • $19,800,000
  • Description

    image

    General

    Complete name : Bird Box (2018) 720p English HDRip x264 AAC by Full4movies.mkv

    Format : Matroska

    Format version : Version 4 / Version 2

    File size : 1 023 MiB

    Duration : 2 h 3 min

    Overall bit rate : 1 154 kb/s

    Movie name : www.Full4moveis.co

    Encoded date : UTC 2018-12-16 07:59:33

    Writing application : mkvmerge v8.1.0 ('Psychedelic Postcard') 32bit

    Writing library : libebml v1.3.1 + libmatroska v1.4.2

    Video

    ID : 1

    Format : AVC

    Format/Info : Advanced Video Codec

    Format profile : [email protected]
    Format settings, CABAC : Yes

    Format settings, RefFrames : 4 frames

    Codec ID : V_MPEG4/ISO/AVC

    Duration : 2 h 3 min

    Bit rate : 1 088 kb/s

    Width : 1 280 pixels

    Height : 536 pixels

    Display aspect ratio : 2.40:1

    Frame rate mode : Constant

    Frame rate : 24.000 FPS

    Color space : YUV

    Chroma subsampling : 4:2:0

    Bit depth : 8 bits

    Scan type : Progressive

    Bits/(Pixel*Frame) : 0.066

    Stream size : 950 MiB (93%)

    Writing library : x264 core 155 r2901 7d0ff22

    Default : Yes

    Forced : No

    Color range : Limited

    Color primaries : BT.709

    Transfer characteristics : BT.709

    Matrix coefficients : BT.709

    Audio

    ID : 2

    Format : AAC

    Format/Info : Advanced Audio Codec

    Format profile : LC

    Codec ID : A_AAC

    Duration : 2 h 3 min

    Bit rate : 80.2 kb/s

    Channel(s) : 2 channels

    Channel positions : Front: L R

    Sampling rate : 48.0 kHz

    Frame rate : 46.875 FPS (1024 SPF)

    Compression mode : Lossy

    Delay relative to video : -21 ms

    Stream size : 71.1 MiB (7%)

    Language : English

    Default : Yes

    Forced : No

    Screen Shoots
    image


    More at ibit.to
    And ibit.uno
    And ibit.ws

    Reviews

    Kind of a _The Happening_ meets _A Quiet Place_, but better than the latter and **way** better than the former. Maybe I didn't get eeeeeeverything I wanted out of _Bird Box_ but I'm still on board. I know that I opened this up by saying the movie is very much like two other movies, but what I liked most about is honestly that it's unlike 99.99% of the horror genre, and that little variation was just what I needed today. _Final rating:★★★½ - I really liked it. Would strongly recommend you give it your time._

    ***Well, at least it doesn’t have zombies*** A mass epidemic strikes Earth which makes people go crazy and commit suicide, but only IF they are not blindfolded and SEE the mysterious phenomena. A group of Californians find succor in an abode with covered windows. One woman (Sandra Bullock) and two children try to make it down a remote river to find sanctuary, blindfolded. Trevante Rhodes and John Malkovich costar. “Bird Box” (2018) is a post-apocalyptic survival adventure/horror with an original concept and elements of flicks like “The Book of Eli” (2010), “The Mist” (2007), “Carriers” (2009) and “Stake Land” (2010). The reason for the apocalypse is what makes “Bird Box” standout and, thankfully, there are no zombies, yet it’s the least of these for a couple of reasons. For one, I didn’t find the dramatic dynamics of the group all that captivating, but it was okay. If you’re a fan of Bullock you’ll probably like this movie more than me. I appreciated Rosa Salazar as Lucy, but her role isn’t that significant. Meanwhile Rhodes and Malkovich are effective. The concept behind the mass crisis is where the movie fails. It’s sort of explained and yet it isn’t. There are too many inconsistencies and what appears to be plot holes. It’s basically a bunch of malarkey and reflects lazy writing. People on message boards debate back-and-forth ad nauseam, but the movie’s too nonsensical and meh to make it worth the effort. The film runs 2 hours and 4 minutes and was shot in Southern Cal (Monrovia, La Puente, Santa Clarita, Smith River, Scripps College and Los Angeles). GRACE: C

    Comments

    Files

    Bird Box (2018) 720p English HDRip x264 AAC by Full4movies.mkv 1.0 GB

    Stream

    Downloading Seeding Bird Box (2018) 720p English HDRip x264 AAC by Full4movies from to 0 peers.
    of
    0 b/s / ↗0 b/s