• 7
  • 0
  • done
Sponsored Downloadondemand_video
  • Benvenuti a Marwen - Welcome to Marwen (2018).720p.ita.eng.sub.ita.eng-MIRCrew
  • 2.2 GB
  • robbyrs
  • Benvenuti Marwen Welcome 2018 720p ita eng sub MIRCrew
  • English
  • HD 720p
65%

Welcome to Marwen (2018)

  • Drama Comedy Fantasy Animation
  • When a devastating attack shatters Mark Hogancamp and wipes away all memories, no one expected recovery. Putting together pieces from his old and new life, Mark meticulously creates a wondrous town named Marwen where he can heal and be heroic. As he builds an astonishing art installation — a testament to the most powerful women he knows — through his fantasy world, he draws strength to triumph in the real one.

    expand_more
    English
  • $39,000,000
  • Description

    Welcome to Marwen - Benvenuti a Marwen (2018).720p.H264.italian.english.Ac3-5.1.sub.ita.eng-MIRCrew

    image

    NO FOUND ONLY ORIGINAL RELEASE

    My release is always in double track audio italian and Original audio

    for select it use VLC or dvd player home

    not use wmp

    Benvenuti a Marwen - Welcome to Marwen (2018)

    Quality MIRCrew on HD 720p da  2,1 gb

    image

    image

    image

    image

    Titolo originale    Welcome to Marwen

    Lingua originale    inglese, tedesco

    Paese di produzione    Stati Uniti d'America

    Anno    2018

    Durata    116 min

    Rapporto    2,39 : 1

    Genere    drammatico, biografico, fantastico, guerra, azione

    Regia    Robert Zemeckis

    Soggetto    storia di Robert Zemeckis e Caroline Thompson

    Sceneggiatura    Robert Zemeckis

    image

        Steve Carell: Mark Hogancamp

        Leslie Mann: Nicol

        Diane Kruger: Deja Thoris

        Merritt Wever: Roberta

        Janelle Monáe: Julie

        Eiza González: Caralala

        Gwendoline Christie: Anna

        Leslie Zemeckis: Suzette

        Neil Jackson: Kurt

        Conrad Coates: Demaryius Johnson

        Falk Hentschel: Ludwig Topf

        Matt O'Leary: Carl

        Nikolai Witschl: Rudolph

        Patrick Roccas: Stefan

        Alexander Lowe: Werner

        Eric Keenleyside: Larry

        Stefanie von Pfetten: Wendy

        Siobhan Williams: Elsa

    image

    Mark Hogancamp è vittima di un violento pestaggio da parte di cinque uomini che lo attaccarono dopo averlo sentito dire da ubriaco che gli piaceva indossare scarpe da donna. Sopravvissuto all'attacco, Mark soffre di un'amnesia che gli impedisce di ricordarsi della sua vita precedente al pestaggio e.........................

    image

    On April 8, 2000, aspiring artist Mark Hogancamp (Steve Carell) became a victim of a violent assault when five men beat him up and left him for dead. Following the attack, Mark was left with little to no memory of his previous life due to brain damage inflicted by his attackers

    image   

    image image image image image

    image

    General

    Unique ID                                : 215152879992194907285351313710981425803 (0xA1DCEFFABEABD5E9970BF3CB50F9AA8B)

    Complete name                            : Benvenuti a Marwen - Welcome to Marwen (2018).720p.ita.eng.sub.ita.eng-MIRCrewBenvenuti a Marwen - Welcome to Marwen (2018).720p.ita.eng.sub.ita.eng-MIRCrew.mkv

    Format                                   : Matroska

    Format version                           : Version 2

    File size                                : 2.16 GiB

    Duration                                 : 1h 55mn

    Overall bit rate                         : 2 670 Kbps

    Movie name                               : MIRCrew

    Encoded date                             : UTC 2019-05-13T13:18:40Z

    Writing application                      : mkvmerge v5.8.0 ('No Sleep / Pillow') built on Sep  2 2012 15:37:04

    Writing library                          : Lavf55.12.0

    Video

    ID                                       : 1

    Format                                   : AVC

    Format/Info                              : Advanced Video Codec

    Format profile                           : [email protected]

    Format settings, CABAC                   : Yes

    Format settings, ReFrames                : 4 frames

    Codec ID                                 : V_MPEG4/ISO/AVC

    Duration                                 : 1h 55mn

    Bit rate                                 : 1 900 Kbps

    Width                                    : 1 280 pixels

    Height                                   : 528 pixels

    Display aspect ratio                     : 2.40:1

    Frame rate                               : 23.976 fps

    Color space                              : YUV

    Chroma subsampling                       : 4:2:0

    Bit depth                                : 8 bits

    Scan type                                : Progressive

    Bits/(Pixel*Frame)                       : 0.117

    Stream size                              : 1.50 GiB (69%)

    Title                                    : MIRCrew

    Writing library                          : x264 core 142 r2479 dd79a61

    Encoding settings                        : cabac=1 / ref=1 / deblock=1:0:0 / analyse=0x1:0x111 / me=hex / subme=2 / psy=1 / psyrd=1.00:0.00 / mixedref=0 / merange=16 / chromame=1 / trellis=0 / 8x8dct=0 / cqm=0 / deadzone=21,11 / fastpskip=1 / chromaqpoffset=0 / threads=9 / lookaheadthreads=3 / slicedthreads=0 / nr=0 / decimate=1 / interlaced=0 / bluraycompat=0 / constrainedintra=0 / bframes=3 / bpyramid=2 / badapt=1 / bbias=0 / direct=1 / weightb=1 / opengop=0 / weightp=1 / keyint=240 / keyintmin=24 / scenecut=40 / intrarefresh=0 / rclookahead=10 / rc=abr / mbtree=1 / bitrate=1900 / ratetol=1.0 / qcomp=0.60 / qpmin=0 / qpmax=69 / qpstep=4 / vbvmaxrate=50000 / vbvbufsize=62500 / nalhrd=none / filler=0 / ipratio=1.40 / aq=1:1.00

    Language                                 : Italian

    Default                                  : Yes

    Forced                                   : No

    Color primaries                          : BT.709-5, BT.1361, IEC 61966-2-4, SMPTE RP177

    Transfer characteristics                 : BT.709-5, BT.1361

    Matrix coefficients                      : BT.709-5, BT.1361, IEC 61966-2-4 709, SMPTE RP177

    Audio #1

    ID                                       : 2

    Format                                   : AC-3

    Format/Info                              : Audio Coding 3

    Mode extension                           : CM (complete main)

    Codec ID                                 : A_AC3

    Duration                                 : 1h 55mn

    Bit rate mode                            : Constant

    Bit rate                                 : 384 Kbps

    Channel(s)                               : 6 channels

    Channel positions                        : Front: L C R, Side: L R, LFE

    Sampling rate                            : 48.0 KHz

    Bit depth                                : 16 bits

    Compression mode                         : Lossy

    Delay relative to video                  : -5ms

    Stream size                              : 318 MiB (14%)

    Title                                    : Ita Ac3 5.1

    Language                                 : Italian

    Default                                  : Yes

    Forced                                   : No

    Audio #2

    ID                                       : 3

    Format                                   : AC-3

    Format/Info                              : Audio Coding 3

    Mode extension                           : CM (complete main)

    Codec ID                                 : A_AC3

    Duration                                 : 1h 55mn

    Bit rate mode                            : Constant

    Bit rate                                 : 384 Kbps

    Channel(s)                               : 6 channels

    Channel positions                        : Front: L C R, Side: L R, LFE

    Sampling rate                            : 48.0 KHz

    Bit depth                                : 16 bits

    Compression mode                         : Lossy

    Delay relative to video                  : -5ms

    Stream size                              : 318 MiB (14%)

    Title                                    : Eng Ac3 5.1

    Language                                 : English

    Default                                  : No

    Forced                                   : No

    Menu

    00:00:00.000                             : :00:00:00.000

    00:04:17.340                             : :00:04:17.257

    00:10:57.531                             : :00:10:57.448

    00:16:43.002                             : :00:16:42.877

    00:22:27.095                             : :00:22:26.971

    00:27:34.945                             : :00:27:34.820

    00:35:10.858                             : :00:35:10.775

    00:41:09.341                             : :00:41:09.217

    00:45:59.506                             : :00:45:59.256

    00:51:35.717                             : :00:51:35.634

    01:00:36.049                             : :01:00:35.924

    01:03:31.099                             : :01:03:30.974

    01:08:07.375                             : :01:08:07.250

    01:13:38.831                             : :01:13:38.706

    01:17:14.796                             : :01:17:14.713

    01:25:13.608                             : :01:25:13.525

    01:30:48.609                             : :01:30:48.485

    01:39:34.843                             : :01:39:34.719

    01:43:31.497                             : :01:43:31.372

    01:48:50.315                             : :01:48:50.232


    More at ibit.to
    And ibit.uno
    And ibit.ws

    Reviews

    Comments

    Files

    Benvenuti a Marwen - Welcome to Marwen (2018).720p.ita.eng.sub.ita.eng-MIRCrew.eng.srt 114 kB
    Benvenuti a Marwen - Welcome to Marwen (2018).720p.ita.eng.sub.ita.eng-MIRCrew.ita.srt 87 kB
    Benvenuti a Marwen - Welcome to Marwen (2018).720p.ita.eng.sub.ita.eng-MIRCrew.mkv 2.2 GB
    Benvenuti a Marwen - Welcome to Marwen (2018).720p.ita.eng.sub.ita.eng-MIRCrew.srt 2.1 kB

    Stream

    Downloading Seeding Benvenuti a Marwen - Welcome to Marwen (2018).720p.ita.eng.sub.ita.eng-MIRCrew from to 0 peers.
    of
    0 b/s / ↗0 b/s