• 0
  • 5
  • 265
Sponsored Downloadondemand_video
  • Batman Begins (2005) (2160p BluRay x265 HEVC 10bit AAC 5.1 Joy) [UTR]
  • 6.3 GB
  • UTRCorp
  • Batman Begins 2005 2160p BluRay x265 HEVC 10bit
  • English
  • HEVC/x265
76%

Batman Begins (2005)

  • Action Crime Drama
  • Driven by tragedy, billionaire Bruce Wayne dedicates his life to uncovering and defeating the corruption that plagues his home, Gotham City. Unable to work within the system, he instead creates a new identity, a symbol of fear for the criminal underworld - The Batman.

    expand_more
    English
  • $150,000,000
  • Description

    image

    image
    image
    image
    image

    Media Information


    ** Media Information **


    Code:

    __ General
    Format : Matroska

    Format version : Version 4 / Version 2

    File size : 6.33 GiB

    Duration : 2 h 21 min

    Overall bit rate : 6 400 kb/s

    Movie name : Batman Begins 2005 (2160p x265 10bit FS97 Joy)[UTR]

    Encoded date : UTC 2018-04-01 01:07:20

    Writing application : mkvmerge v21.0.0 ('Tardigrades Will Inherit The Earth') 64-bit

    Writing library : libebml v1.3.5 + libmatroska v1.4.8

    Cover : Yes

    Attachments : cover.jpg

    Writing frontend : StaxRip v1.7.0.6

    Video
    ID : 1

    Format : HEVC

    Format/Info : High Efficiency Video Coding

    Format profile : Main [email protected]@Main

    Codec ID : V_MPEGH/ISO/HEVC

    Duration : 2 h 20 min

    Bit rate : 5 999 kb/s

    Width : 3 840 pixels

    Height : 1 600 pixels

    Display aspect ratio : 2.40:1

    Frame rate mode : Constant

    Frame rate : 23.976 (24000/1001) FPS

    Color space : YUV

    Chroma subsampling : 4:2:0

    Bit depth : 10 bits

    Bits/(Pixel*Frame) : 0.041

    Stream size : 5.87 GiB (93%)

    Writing library : x265 2.7+2-22c127ff05d5:[Windows][MSVC 1900][64 bit] 10bit

    Encoding settings : cpuid=1173503 / frame-threads=4 / numa-pools=16 / wpp / no-pmode / no-pme / no-psnr / ssim / log-level=2 / input-csp=1 / input-res=3840x1600 / interlace=0 / total-frames=201492 / level-idc=0 / high-tier=1 / uhd-bd=0 / ref=3 / no-allow-non-conformance / no-repeat-headers / annexb / no-aud / no-hrd / info / hash=0 / no-temporal-layers / open-gop / min-keyint=23 / keyint=250 / gop-lookahead=0 / bframes=4 / b-adapt=2 / b-pyramid / bframe-bias=0 / rc-lookahead=20 / lookahead-slices=8 / scenecut=40 / radl=0 / no-intra-refresh / ctu=64 / min-cu-size=8 / no-rect / no-amp / max-tu-size=32 / tu-inter-depth=1 / tu-intra-depth=1 / limit-tu=0 / rdoq-level=1 / dynamic-rd=0.00 / ssim-rd / signhide / no-tskip / nr-intra=0 / nr-inter=0 / no-constrained-intra / strong-intra-smoothing / max-merge=2 / limit-refs=3 / no-limit-modes / me=1 / subme=2 / merange=57 / temporal-mvp / weightp / weightb / no-analyze-src-pics / deblock=0:0 / sao / no-sao-non-deblock / rd=3 / no-early-skip / rskip / no-fast-intra / no-tskip-fast / no-cu-lossless / b-intra / no-splitrd-skip / rdpenalty=0 / psy-rd=0.00 / psy-rdoq=0.00 / no-rd-refine / no-lossless / cbqpoffs=0 / crqpoffs=0 / rc=abr / bitrate=6000 / qcomp=0.60 / qpstep=4 / stats-write=0 / stats-read=2 / cplxblur=20.0 / qblur=0.5 / ipratio=1.40 / pbratio=1.30 / aq-mode=2 / aq-strength=1.00 / cutree / zone-count=0 / no-strict-cbr / qg-size=32 / no-rc-grain / qpmax=69 / qpmin=0 / no-const-vbv / sar=0 / overscan=0 / videoformat=5 / range=0 / colorprim=2 / transfer=2 / colormatrix=2 / chromaloc=0 / display-window=0 / max-cll=0,0 / min-luma=0 / max-luma=1023 / log2-max-poc-lsb=8 / vui-timing-info / vui-hrd-info / slices=1 / no-opt-qp-pps / no-opt-ref-list-length-pps / no-multi-pass-opt-rps / scenecut-bias=0.05 / no-opt-cu-delta-qp / no-aq-motion / no-hdr / no-hdr-opt / no-dhdr10-opt / analysis-reuse-level=5 / scale-factor=0 / refine-intra=0 / refine-inter=0 / refine-mv=0 / limit-sao / ctu-info=0 / no-lowpass-dct / refine-mv-type=0 / copy-pic=1

    Default : Yes

    Forced : No

    Audio
    ID : 2

    Format : AAC

    Format/Info : Advanced Audio Codec

    Format profile : LC

    Codec ID : A_AAC

    Duration : 2 h 20 min

    Bit rate : 448 kb/s

    Channel(s) : 6 channels

    Channel positions : Front: L C R, Side: L R, LFE

    Sampling rate : 48.0 kHz

    Frame rate : 46.875 FPS (1024 spf)

    Compression mode : Lossy

    Delay relative to video : 9 ms

    Stream size : 449 MiB (7%)

    Language : English

    Default : Yes

    Forced : No

    Subtitle #1
    ID : 3

    Format : UTF-8

    Codec ID : S_TEXT/UTF8

    Codec ID/Info : UTF-8 Plain Text

    Duration : 2 h 9 min

    Bit rate : 51 b/s

    Count of elements : 1385

    Stream size : 49.5 KiB (0%)

    Language : English

    Default : No

    Forced : No

    Subtitle #2
    ID : 4

    Format : VobSub

    Muxing mode : zlib

    Codec ID : S_VOBSUB

    Codec ID/Info : Picture based subtitle format used on DVDs

    Duration : 2 h 19 min

    Bit rate : 9 051 b/s

    Count of elements : 1473

    Stream size : 9.01 MiB (0%)

    Language : English

    Default : No

    Forced : No

    Subtitle #3
    ID : 5

    Format : VobSub

    Muxing mode : zlib

    Codec ID : S_VOBSUB

    Codec ID/Info : Picture based subtitle format used on DVDs

    Duration : 2 h 19 min

    Bit rate : 6 712 b/s

    Count of elements : 1392

    Stream size : 6.68 MiB (0%)

    Language : French

    Default : No

    Forced : No

    Subtitle #4
    ID : 6

    Format : VobSub

    Muxing mode : zlib

    Codec ID : S_VOBSUB

    Codec ID/Info : Picture based subtitle format used on DVDs

    Duration : 1 h 47 min

    Bit rate : 5 b/s

    Count of elements : 2

    Stream size : 4.35 KiB (0%)

    Language : French

    Default : No

    Forced : Yes

    Subtitle #5
    ID : 7

    Format : VobSub

    Muxing mode : zlib

    Codec ID : S_VOBSUB

    Codec ID/Info : Picture based subtitle format used on DVDs

    Duration : 2 h 19 min

    Bit rate : 7 839 b/s

    Count of elements : 1394

    Stream size : 7.81 MiB (0%)

    Language : Spanish

    Default : No

    Forced : No

    Subtitle #6
    ID : 8

    Format : VobSub

    Muxing mode : zlib

    Codec ID : S_VOBSUB

    Codec ID/Info : Picture based subtitle format used on DVDs

    Duration : 1 h 47 min

    Bit rate : 70 b/s

    Count of elements : 12

    Stream size : 55.4 KiB (0%)

    Language : Spanish

    Default : No

    Forced : Yes

    Subtitle #7
    ID : 9

    Format : UTF-8

    Codec ID : S_TEXT/UTF8

    Codec ID/Info : UTF-8 Plain Text

    Duration : 2 h 21 min

    Bit rate : 76 b/s

    Count of elements : 1400

    Stream size : 79.5 KiB (0%)

    Language : Arabic

    Default : No

    Forced : No

    Subtitle #8
    ID : 10

    Format : UTF-8

    Codec ID : S_TEXT/UTF8

    Codec ID/Info : UTF-8 Plain Text

    Duration : 2 h 10 min

    Bit rate : 40 b/s

    Count of elements : 1388

    Stream size : 38.5 KiB (0%)

    Language : Chinese

    Default : No

    Forced : No

    Subtitle #9
    ID : 11

    Format : UTF-8

    Codec ID : S_TEXT/UTF8

    Codec ID/Info : UTF-8 Plain Text

    Duration : 2 h 10 min

    Bit rate : 44 b/s

    Count of elements : 1020

    Stream size : 42.2 KiB (0%)

    Language : Danish

    Default : No

    Forced : No

    Subtitle #10
    ID : 12

    Format : UTF-8

    Codec ID : S_TEXT/UTF8

    Codec ID/Info : UTF-8 Plain Text

    Duration : 2 h 11 min

    Bit rate : 43 b/s

    Count of elements : 1196

    Stream size : 42.0 KiB (0%)

    Language : Dutch

    Default : No

    Forced : No

    Subtitle #11
    ID : 13

    Format : UTF-8

    Codec ID : S_TEXT/UTF8

    Codec ID/Info : UTF-8 Plain Text

    Duration : 2 h 11 min

    Bit rate : 78 b/s

    Count of elements : 1397

    Stream size : 75.5 KiB (0%)

    Language : Persian

    Default : No

    Forced : No

    Subtitle #12
    ID : 14

    Format : UTF-8

    Codec ID : S_TEXT/UTF8

    Codec ID/Info : UTF-8 Plain Text

    Duration : 2 h 10 min

    Bit rate : 51 b/s

    Count of elements : 1184

    Stream size : 49.6 KiB (0%)

    Language : Finnish

    Default : No

    Forced : No

    Subtitle #13
    ID : 15

    Format : UTF-8

    Codec ID : S_TEXT/UTF8

    Codec ID/Info : UTF-8 Plain Text

    Duration : 2 h 10 min

    Bit rate : 59 b/s

    Count of elements : 1428

    Stream size : 56.6 KiB (0%)

    Language : German

    Default : No

    Forced : No

    Subtitle #14
    ID : 16

    Format : UTF-8

    Codec ID : S_TEXT/UTF8

    Codec ID/Info : UTF-8 Plain Text

    Duration : 2 h 19 min

    Bit rate : 81 b/s

    Count of elements : 1363

    Stream size : 83.5 KiB (0%)

    Language : Greek

    Default : No

    Forced : No

    Subtitle #15
    ID : 17

    Format : UTF-8

    Codec ID : S_TEXT/UTF8

    Codec ID/Info : UTF-8 Plain Text

    Duration : 2 h 10 min

    Bit rate : 70 b/s

    Count of elements : 1396

    Stream size : 67.6 KiB (0%)

    Language : Hebrew

    Default : No

    Forced : No

    Subtitle #16
    ID : 18

    Format : UTF-8

    Codec ID : S_TEXT/UTF8

    Codec ID/Info : UTF-8 Plain Text

    Duration : 2 h 5 min

    Bit rate : 55 b/s

    Count of elements : 1393

    Stream size : 50.9 KiB (0%)

    Language : Norwegian

    Default : No

    Forced : No

    Subtitle #17
    ID : 19

    Format : UTF-8

    Codec ID : S_TEXT/UTF8

    Codec ID/Info : UTF-8 Plain Text

    Duration : 2 h 10 min

    Bit rate : 53 b/s

    Count of elements : 1421

    Stream size : 51.1 KiB (0%)

    Language : Portuguese

    Default : No

    Forced : No

    Subtitle #18
    ID : 20

    Format : UTF-8

    Codec ID : S_TEXT/UTF8

    Codec ID/Info : UTF-8 Plain Text

    Duration : 2 h 10 min

    Bit rate : 39 b/s

    Count of elements : 1381

    Stream size : 37.8 KiB (0%)

    Language : Serbian

    Default : No

    Forced : No

    Subtitle #19
    ID : 21

    Format : UTF-8

    Codec ID : S_TEXT/UTF8

    Codec ID/Info : UTF-8 Plain Text

    Duration : 2 h 10 min

    Bit rate : 51 b/s

    Count of elements : 1256

    Stream size : 48.8 KiB (0%)

    Language : Swedish

    Default : No

    Forced : No

    Subtitle #20
    ID : 22

    Format : UTF-8

    Codec ID : S_TEXT/UTF8

    Codec ID/Info : UTF-8 Plain Text

    Duration : 2 h 19 min

    Bit rate : 107 b/s

    Count of elements : 1395

    Stream size : 111 KiB (0%)

    Language : Thai

    Default : No

    Forced : No

    Subtitle #21
    ID : 23

    Format : UTF-8

    Codec ID : S_TEXT/UTF8

    Codec ID/Info : UTF-8 Plain Text

    Duration : 2 h 10 min

    Bit rate : 79 b/s

    Count of elements : 1543

    Stream size : 75.5 KiB (0%)

    Language : Vietnamese

    Default : No

    Forced : No

    Menu
    00:00:00.000 : en:Chapter 1

    00:03:39.385 : en:Chapter 2

    00:07:31.325 : en:Chapter 3

    00:11:34.110 : en:Chapter 4

    00:16:15.683 : en:Chapter 5

    00:19:44.433 : en:Chapter 6

    00:24:19.458 : en:Chapter 7

    00:28:24.869 : en:Chapter 8

    00:31:25.383 : en:Chapter 9

    00:35:53.901 : en:Chapter 10

    00:38:24.677 : en:Chapter 11

    00:41:14.680 : en:Chapter 12

    00:43:08.210 : en:Chapter 13

    00:46:57.940 : en:Chapter 14

    00:49:43.939 : en:Chapter 15

    00:53:26.161 : en:Chapter 16

    00:55:55.143 : en:Chapter 17

    00:58:02.353 : en:Chapter 18

    01:03:31.849 : en:Chapter 19

    01:05:53.074 : en:Chapter 20

    01:08:38.948 : en:Chapter 21

    01:11:25.864 : en:Chapter 22

    01:13:19.520 : en:Chapter 23

    01:16:16.238 : en:Chapter 24

    01:19:50.452 : en:Chapter 25

    01:23:54.362 : en:Chapter 26

    01:29:02.754 : en:Chapter 27

    01:32:36.759 : en:Chapter 28

    01:37:49.113 : en:Chapter 29

    01:40:33.777 : en:Chapter 30

    01:45:09.136 : en:Chapter 31

    01:49:32.190 : en:Chapter 32

    01:51:29.349 : en:Chapter 33

    01:54:49.090 : en:Chapter 34

    01:58:11.125 : en:Chapter 35

    02:01:55.099 : en:Chapter 36

    02:05:01.285 : en:Chapter 37

    02:06:06.976 : en:Chapter 38

    02:09:18.584 : en:Chapter 39

    02:10:57.266 : en:Chapter 40

    __


    ** Source Information **


    Code:

    __ Release:
    Batman.Begins.2005.2160p.mkv (33.51 GBs)

    __


    More at ibit.to
    And ibit.uno
    And ibit.ws

    Reviews

    It's not who I am underneath, but what I do that defines me. Bruce Wayne is constantly tortured by his childhood memories when he witnessed his parents being murdered. Taken under the wing of The League Of Shadows, a deadly ninja assassin army devoted to erasing crime with their own brand of harsh justice. After completing training, Wayne refuses to join them on account of not agreeing with their methods, he returns to Gotham City to reek his own one man war against crime. Director Christopher Nolan literally goes back to Batman origins to not just give the dead franchise a kiss of life, but actually to spark it into a sort of triumphant homecoming. Gone is all forms of camp veneer so evident in Joel Schumacher's offerings, and in place we have a darkly rich picture intent on fleshing out Batman's motives, and crucially, his fractured persona. One of the most pleasing things to me was that Nolan paced this picture to perfection, the build up of character, and then birth of the Bat, dominates for practically the first hour of the piece. This gives Batman Begins some crucial heart, it really helps us to focus on this weird super-hero now that we have some meat on his bones. We then follow Wayne from a Chinese prison to The League Of Shadows monastery, watching his transformation from brawling man of anger into a controlled fighting machine. A machine that still roams with a revenge laden heart. Then its to Gotham City where he then births Batman and all bad guys are on his agenda. Mob boss Falcone, the mysterious Scarecrow, and also a face from his past that rears its surprising head. Wayne is driven by powerful motives, and it's here in the second part of the film that Batman Begins rewards those who indulged in the character build up. In come the stunts and outrageous sequences, all played out in Nolan's desperately dank Gotham City (a far cry from Tim Burton's dark Oz like scapes). This Gotham is pot boiling to disaster and is crying out for the Bat to sweep all before it, and thankfully Nolan and his cast fulfil all the early promise to deliver a wonderful action fantasy that caters for all ages. Christian Bale dons the Batsuit and it fits like a glove, his Bruce Wayne may lack the ebullient charisma that Michael Keaton's had, but his Batman is mean and moody and comfortable with the zippy dialogue. Michael Caine plays Alfred the loyal servant to the Wayne family, much heart and emotive drive from Caine ensures the role is a roaring success. Cillian Murphy is Dr Jonathan Crane/Scarecrow who actually scares more as Crane with his piercing eyes and devilishly smirky leer, whilst both Gary Oldman (Jim Gordon) & Morgan Freeman (Lucius Fox) are solid with what little they actually have to do. Liam Neeson gets his teeth into a meaty role as Henri Ducard, and as a character arc he gets the best scenes (Nolan clearly having great fun here). Minnor let downs to me without hurting the picture are Katie Holmes (pretty but hardly convincing as Assistant D.A. Rachael Dawes) and Rutger Hauer as Earle (a little bit of menace wouldn't go amiss here Rutger old man). Still, as I said they are very minor let downs because as comic book adaptations go, Batman Begins is from the top draw, a franchise re-suited, rebooted and completely reinvigorated. But now the test comes with that all important sequel... 9/10

    Comments

    1 year ago

    @cocoeva Math.

    Files

    Batman Begins 2005 (2160p x265 10bit FS97 Joy).mkv 6.3 GB
    Batman Begins 2005 (2160p x265 10bit FS97 Joy).mkv 6.8 GB

    Stream

    Downloading Seeding Batman Begins (2005) (2160p BluRay x265 HEVC 10bit AAC 5.1 Joy) [UTR] from to 0 peers.
    of
    0 b/s / ↗0 b/s