• 5,217
  • 1,433
  • done
Anonymous Downloadondemand_video
Warning! Use a VPN When Downloading Torrents!
Your IP Address is ,
Your Internet Provider can see when you download torrents! Hide your IP ADDRESS with a VPN
We strongly recommend hide.me VPN to hide your torrenting. It's FREE!
DOWNLOAD VPN
0%

Bala (2019)

  • Comedy Romance
  • A man suffering from alopecia copes with his lack of self-confidence and the societal pressure that comes with being bald.

    Hindi

    Description

    image

    _Bala (2019) Hindi. 720p. Pre-DVDrip  x264. AC3. [NO LOGO] Team Shadow Presents
    _

    image

    image

    image

    Movie Info

    **_Name - Bala (2019) Hindi

    Duration :2hr 11min

    Storyline - It tells the story of a man who is balding prematurely and how he copes up with the situation

    IMDB : https://www.imdb.com/title/tt9420648/

    Directors:     Amar Kaushik

    Stars :    Ayushmann Khurrana, Bhumi Pednekar, Yami Gautam

    Release date :     8 November 2019 (India)

    File size : 1.31 GB

    Encoded by Team Shàdów (Shàdów)_**

                                                                                                         note :  

    logo is bulered

    image

    image

    **General

    Unique ID                                : 337540026374335864241283020906506215491 (0xFDEFD82C105041DA61A613D6E473E043)

    Complete name                            : moviesBala (2019) Hindi. 720p. Pre-DVDrip  x264. Ac3. [NO LOGO] Team Shadow Presents.mkv

    Format                                   : Matroska

    Format version                           : Version 4

    File size                                : 1.38 GiB

    Duration                                 : 2 h 11 min

    Overall bit rate                         : 1 504 kb/s

    Encoded date                             : UTC 2019-11-09 07:32:26

    Writing application                      : HandBrake 1.2.2 2019022300

    Writing library                          : Lavf58.20.100

    ErrorDetectionType                       : Per level 1

    Video

    ID                                       : 1

    Format                                   : AVC

    Format/Info                              : Advanced Video Codec

    Format profile                           : [email protected]

    Format settings                          : CABAC / 4 Ref Frames

    Format settings, CABAC                   : Yes

    Format settings, Reference frames        : 4 frames

    Codec ID                                 : V_MPEG4/ISO/AVC

    Duration                                 : 2 h 11 min

    Bit rate                                 : 1 282 kb/s

    Width                                    : 1 280 pixels

    Height                                   : 544 pixels

    Display aspect ratio                     : 2.25:1

    Frame rate mode                          : Constant

    Frame rate                               : 24.000 FPS

    Color space                              : YUV

    Chroma subsampling                       : 4:2:0

    Bit depth                                : 8 bits

    Scan type                                : Progressive

    Bits/(Pixel*Frame)                       : 0.077

    Stream size                              : 1.18 GiB (85%)

    Writing library                          : x264 core 157 r2935 545de2f

    Encoding settings                        : cabac=1 / ref=2 / deblock=1:0:0 / analyse=0x1:0x111 / me=hex / subme=6 / psy=1 / psyrd=1.00:0.00 / mixedref=1 / merange=16 / chromame=1 / trellis=1 / 8x8dct=0 / cqm=0 / deadzone=21,11 / fastpskip=1 / chromaqpoffset=-2 / threads=6 / lookaheadthreads=1 / slicedthreads=0 / nr=0 / decimate=1 / interlaced=0 / bluraycompat=0 / constrainedintra=0 / bframes=3 / bpyramid=2 / badapt=1 / bbias=0 / direct=1 / weightb=1 / opengop=0 / weightp=1 / keyint=240 / keyintmin=24 / scenecut=40 / intrarefresh=0 / rclookahead=30 / rc=crf / mbtree=1 / crf=21.0 / qcomp=0.60 / qpmin=0 / qpmax=69 / qpstep=4 / ip_ratio=1.40 / aq=1:1.00

    Default                                  : Yes

    Forced                                   : No

    Color range                              : Limited

    Color primaries                          : BT.709

    Transfer characteristics                 : BT.709

    Matrix coefficients                      : BT.709

    Audio

    ID                                       : 2

    Format                                   : AC-3

    Format/Info                              : Audio Coding 3

    Commercial name                          : Dolby Digital

    Codec ID                                 : A_AC3

    Duration                                 : 2 h 11 min

    Bit rate mode                            : Constant

    Bit rate                                 : 192 kb/s

    Channel(s)                               : 2 channels

    Channel layout                           : L R

    Sampling rate                            : 44.1 kHz

    Frame rate                               : 28.711 FPS (1536 SPF)

    Compression mode                         : Lossy

    Delay relative to video                  : 13 ms

    Stream size                              : 180 MiB (13%)

    Title                                    : Stereo

    Service kind                             : Complete Main

    Default                                  : Yes

    Forced                                   : No
    **

    image

    image

    image

    image

    image

    image

    image


    More at ibit.to
    And ibit.uno
    And ibit.am
    And ibit.ws

    Reviews

    Comments

    Files

    Bala (2019) Hindi. 720p. Pre-DVDrip x264. AAC. [NO LOGO] Team Shadow Presents.mkv 1.4 GB

    Stream

    Downloading Seeding Bala (2019) Hindi. 720p. Pre-DVDrip x264. AAC. [NO LOGO] Team Shadow Presents from to 0 peers.
    of
    0 b/s / ↗0 b/s