• 0
  • 0
Anonymous Downloadondemand_video
Warning! Use a VPN When Downloading Torrents!
Your IP Address is ,
Your Internet Provider can see when you download torrents! Hide your IP ADDRESS with a VPN
We strongly recommend Trust.Zone VPN to hide your torrenting. It's FREE!
DOWNLOAD VPN
59%

Azhar (2016)

  • Drama
  • Indian biographical sports film directed by Tony D'Souza based on the life of the former Indian international cricketer, Mohammad Azharuddin. It will star emraan hashmi in the lead role alongside Prachi Desai , Nargis Fakhri and Huma Qureshi

    expand_more

    Description

    image
    image

    ** ** AZHAR**

    ** 2016 **

    ** Tiny 1080p / Blu-Ray / x264 / AAC 5.1 **

    ** English Subtitle(s) ** **

    ** [SCREENS] **

    image image image image image image image image image image image image image image image image

    ** [Info] **
    Source : DDR Blu-ray BD50

    Format : Matroska

    File size : 1.18 GiB

    Duration : 2h 10mn

    Overall bit rate : 1 295 Kbps

    Encoded date : UTC 2016-07-26 23:02:19

    Video

    Format : AVC

    Format/Info : Advanced Video Codec

    Format profile : [email protected]
    Format settings, CABAC : Yes

    Format settings, ReFrames : 12 frames

    Codec ID : V_MPEG4/ISO/AVC

    Duration : 2h 10mn

    Bit rate : 1 096 Kbps

    Width : 1 920 pixels

    Height : 816 pixels

    Display aspect ratio : 2.35:1

    Frame rate mode : Constant

    Frame rate : 24.000 fps

    Color space : YUV

    Chroma subsampling : 4:2:0

    Bit depth : 8 bits

    Scan type : Progressive

    Bits/(Pixel*Frame) : 0.029

    Stream size : 1 020 MiB (85%)

    Language : English

    Default : Yes

    Forced : No

    Color range : Limited

    Color primaries : BT.709

    Audio

    Format : AAC

    Format/Info : Advanced Audio Codec

    Format profile : LC

    Codec ID : A_AAC

    Duration : 2h 10mn

    Bit rate : 192 Kbps

    Channel(s) : 6 channels

    Channel positions : Front: L C R, Side: L R, LFE

    Sampling rate : 48.0 KHz

    Frame rate : 46.875 fps (1024 spf)

    Compression mode : Lossy

    Delay relative to video : 19ms

    Stream size : 178 MiB (15%)

    Language : Hindi

    Default : Yes

    Forced : No

    Text

    ID : 3

    Format : VobSub

    Muxing mode : zlib

    Codec ID : S_VOBSUB

    Codec ID/Info : Picture based subtitle format used on DVDs

    Duration : 2h 7mn

    Bit rate : 5 216 bps

    Count of elements : 2019

    Stream size : 4.76 MiB (0%)

    Language : English

    Default : Yes

    Forced : No

    Chapters = YES

    ** [A DDR Exclusive Tiny Encode !!! NOTICE] **


    More at ibit.to
    And ibit.uno
    And ibit.ws

    Reviews

    Comments

    Files

    Azhar (2016) Tiny 1080p Blu-ray x264 AAC 5.1 ESub -[DDR ExclusivE].mkv 1.2 GB
    (sample) Azhar (2016) Tiny 1080p Blu-ray x264 AAC 5.1 ESub -[DDR ExclusivE].mkv 7.1 MB
    A DDR Exclusive.txt -
    Azhar (2016) Tiny 1080p Bluray x264 AAC 5.1 ESub -[DDR ExclusivE] -
    Azhar (2016) Tiny 1080p Bluray x264 AAC 5.1 ESub -[DDR ExclusivE].mkv 1.2 GB
    (sample) Azhar (2016) Tiny 1080p Bluray x264 AAC 5.1 ESub -[DDR ExclusivE].mkv 7.1 MB

    Stream

    Downloading Seeding Azhar (2016) Tiny 1080p Blu-ray x264 AAC 5.1 ESub -[DDR ExclusivE] from to 0 peers.
    of
    0 b/s / ↗0 b/s