• 0
  • 0
Downloadondemand_video
  • Arsène Lupin (2004)
  • 4.8 GB
  • HarleyBR
  • Lupin 2004
  • French
  • Movies

Description

Video

ID : 1

Format : HEVC

Format/Info : High Efficiency Video Coding

Format profile : [email protected]
@Main

Codec ID : hvc1

Codec ID/Info : High Efficiency Video Coding

Duration : 2 h 10 min

Bit rate : 2 600 kb/s

Width : 1 280 pixels

Height : 720 pixels

Display aspect ratio : 16:9

Frame rate mode : Constant

Frame rate : 24.000 FPS

Color space : YUV

Chroma subsampling : 4:2:0

Bit depth : 8 bits

Bits/(Pixel*Frame) : 0.118

Stream size : 2.37 GiB (53%)

Encoded date : UTC 2016-06-17 21:47:55

Tagged date : UTC 2016-06-18 03:57:32

Color range : Limited

Color primaries : BT.709

Transfer characteristics : BT.709

Matrix coefficients : BT.709

Audio

ID : 2

Format : DTS

Format/Info : Digital Theater Systems

Codec ID : dtsc

Codec ID/Info : Digital Theater Systems

Duration : 2 h 10 min

Bit rate mode : Variable

Bit rate : 2 309 kb/s

Channel(s) : channel0

Sampling rate : 0 Hz

Bit depth : 28 bits

Compression mode : Lossy

Stream size : 2.10 GiB (47%)

Title : French (dts 5.1)

Language : French

Default : Yes

Alternate group : 1

Encoded date : UTC 2016-06-17 21:47:55

Tagged date : UTC 2016-06-18 03:57:26

**Subtitles: english, brazilian portuguese


More at ibit.to
And ibit.uno
And ibit.am
And ibit.ws

Comments

Files

Arsène Lupin (2005) ENG.srt 75 kB
Arsène Lupin (2004) ENG.srt 75 kB
Arsène Lupin (2004) ENG.mp4 4.8 GB

Stream

Downloading Seeding Arsène Lupin (2004) from to 0 peers.
of
0 b/s / ↗0 b/s