• 0
  • 0
Sponsored Downloadondemand_video
  • Armored.2009.BRRip.XviD.MP3-RARBG
  • 1.1 GB
  • Armored 2009 BRRip XviD RARBG
  • XVID
56%

Armored (2009)

  • Action Crime Drama Thriller Mystery
  • A crew of officers at an armored transport security firm risk their lives when they embark on the ultimate heist against their own company. Armed with a seemingly fool-proof plan, the men plan on making off with a fortune with harm to none. But when an unexpected witness interferes, the plan quickly unravels and all bets are off.

    expand_more
    English
  • $20,000,000
  • Description

    The war veteran| Ty Hackett| is hired to work as security guard by the Eagle Shield Security where his old friend Mike Cochroone works. Ty is having financialdifficulties after the death of his father| and is raising his brother Jimmy alone. He teams up with Mike's brother-in-law| Baines| and their coworkers Quinn| Palmerand Dobbs. One night| Mike invites Ty to join in the robbery of two armored trucks transporting forty-two million dollars. The reluctant Ty accepts after Mikepromises that nobody would be hurt in the heist.

    http://imdb.com/title/tt0913354/

    http://www.imdb.com/title/tt0913354/

    image

    image

    image

    image

    image

    MediaInfo:

    Video

    ID                                       : 0

    Format                                   : MPEG-4 Visual

    Format profile                           : Simple@L5

    Format settings, BVOP                    : No

    Format settings, QPel                    : No

    Format settings, GMC                     : No warppoints

    Format settings, Matrix                  : Default (H.263)

    Codec ID                                 : XVID

    Codec ID/Hint                            : XviD

    Duration                                 : 1h 27mn

    Bit rate                                 : 1 512 Kbps

    Width                                    : 720 pixels

    Height                                   : 300 pixels

    Display aspect ratio                     : 2.40:1

    Frame rate                               : 23.976 fps

    Color space                              : YUV

    Chroma subsampling                       : 4:2:0

    Bit depth                                : 8 bits

    Scan type                                : Progressive

    Compression mode                         : Lossy

    Bits/(Pixel*Frame)                       : 0.292

    Stream size                              : 950 MiB (88%)

    Title                                    : RARBG.COM - Armored.2009.BRRip.XviD.MP3-RARBG

    Writing library                          : Lavc56.60.100

    Audio

    ID                                       : 1

    Format                                   : MPEG Audio

    Format version                           : Version 1

    Format profile                           : Layer 3

    Mode                                     : Joint stereo

    Mode extension                           : MS Stereo

    Codec ID                                 : 55

    Codec ID/Hint                            : MP3

    Duration                                 : 1h 27mn

    Bit rate mode                            : Constant

    Bit rate                                 : 192 Kbps

    Channel(s)                               : 2 channels

    Sampling rate                            : 48.0 KHz

    Compression mode                         : Lossy

    Stream size                              : 121 MiB (11%)

    Alignment                                : Aligned on interleaves

    Interleave, duration                     : 24 ms (0.58 video frame)

    Interleave, preload duration             : 24 ms

    Title                                    : RARBG.COM - Armored.2009.BRRip.XviD.MP3-RARBG


    More at ibit.to
    And ibit.uno
    And ibit.ws

    Reviews

    Comments

    Files

    Armored.2009.BRRip.XviD.MP3-RARBG.avi 1.1 GB
    Armored.2009.BRRip.XviD.MP3-RARBG.nfo 3.1 kB
    RARBG.COM.avi 1.1 MB
    RARBG.COM.txt 30 B
    Subs/subs.srt 51 kB

    Stream

    Downloading Seeding Armored.2009.BRRip.XviD.MP3-RARBG from to 0 peers.
    of
    0 b/s / ↗0 b/s