• 0
  • 0
Sponsored Downloadondemand_video
63%

Arachnophobia (1990)

  • Comedy Horror
  • A large spider from the jungles of South America is accidentally transported in a crate with a dead body to America where it mates with a local spider. Soon after, the residents of a small California town disappear as the result of spider bites from the deadly spider offspring. It's up to a couple of doctors with the help of an insect exterminator to annihilate these eight legged freaks.

    expand_more
    English
  • $31,000,000
  • Description

    A large spider from the jungles of South America is accidently transported in a crate with a dead body to America where it mates with a local spider. Soon after| theresidents of a small California town disappear as the result of spider bites from the deadly spider offspring. It's up to a couple of doctors with the help of aninsect exterminator to annihilate these eight legged freaks before they take over the entire town.

    Screenshots:

    image

    oooo              .o8

    888             "888

    oo.ooooo.   .oooo.o oooo    ooo  .ooooo.   888 .oo.    .oooo888

    888' 88b d88( "8  88.  .8'  d88' "Y8  888P"Y88b  d88' 888

    888   888 "Y88b.    88..8'   888        888   888  888   888

    888   888 o.  image88b    888'    888   .o8  888   888  888   888

    888bod8P' 8""888P'     .8'     Y8bod8P' o888o o888o Y8bod88P"

    888                .o..P'

    o888o               Y8P'

    Arachnophobia.1990.PROPER.720p.BluRay.x264-PSYCHD

    Date..............: 04/10/2012

    IMDB..............: http://www.imdb.com/title/tt0099052/

    Ratings...........: 6.3/10   30,682 votes

    Runtime...........: 01:49:32

    Video.............: 1280x696 / 23.976fps

    Audio.............: DTS 1509

    Size..............: 5600mb

    Notes.............: HD4U release is from a defective blu-ray encode. All copies of this title were

    recalled by Disney before original release date, and replaced with this fixed encode.

    The issue being all the blacks on the video are in a dark shade of grey.

    See here: http://www.blu-ray.com/news/?id=9430

    Comparisons (in=psychd, out=hd4u):

    http://screenshotcomparison.com/comparison/149011

    http://screenshotcomparison.com/comparison/149012

    http://screenshotcomparison.com/comparison/149013

    "Your worst inhibitions tend to psych you out in the end."

    MediaInfo:

    Video

    ID                                       : 1

    Format                                   : AVC

    Format/Info                              : Advanced Video Codec

    Format profile                           : High@L4.1

    Format settings, CABAC                   : Yes

    Format settings, ReFrames                : 5 frames

    Codec ID                                 : V_MPEG4/ISO/AVC

    Duration                                 : 1h 49mn

    Bit rate                                 : 5 632 Kbps

    Width                                    : 1 280 pixels

    Height                                   : 696 pixels

    Display aspect ratio                     : 1.85:1

    Frame rate mode                          : Constant

    Frame rate                               : 23.976 fps

    Color space                              : YUV

    Chroma subsampling                       : 4:2:0

    Bit depth                                : 8 bits

    Scan type                                : Progressive

    Bits/(Pixel*Frame)                       : 0.264

    Stream size                              : 4.20 GiB (77%)

    Writing library                          : x264 core 125 r2208 d9d2288

    Encoding settings                        : cabac=1 / ref=5 / deblock=1:0:0 / analyse=0x3:0x113 / me=umh / subme=8 / psy=1 / psyrd=1.00:0.00 / mixedref=1 / merange=16 / chromame=1 / trellis=1 / 8x8dct=1 / cqm=0 / deadzone=21,11 / fastpskip=1 / chromaqpoffset=-2 / threads=12 / lookaheadthreads=2 / slicedthreads=0 / nr=0 / decimate=1 / interlaced=0 / bluraycompat=0 / constrainedintra=0 / bframes=3 / bpyramid=2 / badapt=2 / bbias=0 / direct=3 / weightb=1 / opengop=0 / weightp=2 / keyint=240 / keyintmin=24 / scenecut=40 / intrarefresh=0 / rclookahead=50 / rc=2pass / mbtree=1 / bitrate=5632 / ratetol=1.0 / qcomp=0.60 / qpmin=0 / qpmax=69 / qpstep=4 / cplxblur=20.0 / qblur=0.5 / ip_ratio=1.40 / aq=1:1.00

    Language                                 : English

    Default                                  : Yes

    Forced                                   : No

    Audio

    ID                                       : 2

    Format                                   : DTS

    Format/Info                              : Digital Theater Systems

    Mode                                     : 16

    Format settings, Endianness              : Big

    Codec ID                                 : A_DTS

    Duration                                 : 1h 49mn

    Bit rate mode                            : Constant

    Bit rate                                 : 1 509 Kbps

    Channel(s)                               : 6 channels

    Channel positions                        : Front: L C R, Side: L R, LFE

    Sampling rate                            : 48.0 KHz

    Bit depth                                : 24 bits

    Compression mode                         : Lossy

    Stream size                              : 1.15 GiB (21%)

    Language                                 : English

    Default                                  : Yes

    Forced                                   : No

    Text

    ID                                       : 3

    Format                                   : UTF-8

    Codec ID                                 : S_TEXT/UTF8

    Codec ID/Info                            : UTF-8 Plain Text

    Language                                 : English

    Default                                  : No

    Forced                                   : No

    Menu

    00:00:00.000                             : en:00:00:00.000

    00:17:26.462                             : en:00:17:26.462

    00:36:46.538                             : en:00:36:46.538

    00:58:04.523                             : en:00:58:04.523

    01:13:08.593                             : en:01:13:08.593

    01:26:17.214                             : en:01:26:17.214

    01:31:32.987                             : en:01:31:32.987

    01:43:41.674                             : en:01:43:41.674


    More at ibit.to
    And ibit.uno
    And ibit.ws

    Reviews

    Comments

    3 years ago

    Great upload and classic movie.

    Files

    RARBG.com.txt 30 B
    Subs/arachnophobia.1990.proper.720p.bluray.x264-psychd.idx 206 kB
    Subs/arachnophobia.1990.proper.720p.bluray.x264-psychd.sub 18 MB
    arachnophobia.1990.proper.720p.bluray.x264-psychd.mkv 5.5 GB
    arachnophobia.1990.proper.720p.bluray.x264-psychd.nfo 1.6 kB

    Stream

    Downloading Seeding Arachnophobia.1990.PROPER.720p.BluRay.x264-PSYCHD from to 0 peers.
    of
    0 b/s / ↗0 b/s