• 0
  • 0
  • 117
Sponsored Downloadondemand_video
  • American Reunion 2012 Unrated 720p BRRip
  • 653 MB
  • apoorv1992
  • American Reunion 2012 Unrated 720p BRRip
  • English
  • h.264/x264
62%

American Reunion (2012)

  • Comedy
  • The characters we met a little more than a decade ago return to East Great Falls for their high-school reunion. In one long-overdue weekend, they will discover what has changed, who hasn’t, and that time and distance can’t break the bonds of friendship.

    expand_more
    English
  • $50,000,000
  • Description

    American.Pie.Reunion.2012.720P.TS.XviD.AC3-26K
    Imdb:

    http://www.imdb.com/title/tt1605630/

    Plot:

    Jim, Michelle, Stifler, and their friends reunite in East Great Falls, Michigan for

    their high school reunion.

    Sources:

    VIDEO-hd files

    audio-adtrg

    Notes:

    synced line to the hd cam turned out nice with some filters which were added to the

    video so enjoy :)

    Video

    ID : 0

    Format : MPEG-4 Visual

    Format profile : Advanced [email protected]
    Format settings, BVOP : 2

    Format settings, QPel : No

    Format settings, GMC : No warppoints

    Format settings, Matrix : Default (H.263)

    Codec ID : XVID

    Codec ID/Hint : XviD

    Duration : 1h 40mn

    Bit rate : 2 018 Kbps

    Width : 1 280 pixels

    Height : 720 pixels

    Display aspect ratio : 16:9

    Frame rate : 29.970 fps

    Color space : YUV

    Chroma subsampling : 4:2:0

    Bit depth : 8 bits

    Scan type : Progressive

    Compression mode : Lossy

    Bits/(Pixel*Frame) : 0.073

    Stream size : 1.42 GiB (86%)

    Writing library : XviD 64

    Audio

    ID : 1

    Format : MPEG Audio

    Format version : Version 1

    Format profile : Layer 3

    Mode : Joint stereo

    Mode extension : MS Stereo

    Codec ID : 55

    Codec ID/Hint : MP3

    Duration : 1h 40mn

    Bit rate mode : Constant

    Bit rate : 320 Kbps

    Channel(s) : 2 channels

    Sampling rate : 48.0 KHz

    Compression mode : Lossy

    Delay relative to video : 6s 0ms

    Stream size : 231 MiB (14%)

    Alignment : Split accross interleaves

    Interleave, duration : 24 ms (0.72 video frame)

    Interleave, preload duration : 604 ms

    Writing library : LAME3.99r

    Encoding settings : -m j -V 4 -q 2 -lowpass 20.5


    Cover


    image


    Screenshots:-


    image image
    image image
    image
    image
    image


    More at ibit.to
    And ibit.uno
    And ibit.ws

    Reviews

    Comments

    Files

    American Reunion 2012 Unrated 720p BRRip CharmeLeon Silver RG.mkv 649 MB
    apoorv.nfo 2.5 kB
    Cover.png 311 kB
    Sample.mkv 3.9 MB

    Stream

    Downloading Seeding American Reunion 2012 Unrated 720p BRRip from to 0 peers.
    of
    0 b/s / ↗0 b/s