• 0
  • 0
Anonymous Downloadondemand_video
Warning! Use a VPN When Downloading Torrents!
Your IP Address is ,
Your Internet Provider can see when you download torrents! Hide your IP ADDRESS with a VPN
We strongly recommend hide.me VPN to hide your torrenting. It's FREE!
DOWNLOAD VPN
62%

American Reunion (2012)

  • Comedy
  • The characters we met a little more than a decade ago return to East Great Falls for their high-school reunion. In one long-overdue weekend, they will discover what has changed, who hasn’t, and that time and distance can’t break the bonds of friendship.

    expand_more
    English
  • $50,000,000
  • Description

    Over a decade has passed and the gang return to East Great Falls| Michigan| for the weekend. They will discover how their lives have developed as they gather fortheir high school reunion. How has life treated Michelle| Jim| Heather| Oz| Kevin| Vicky| Finch| Stifler| and Stifler's mom? In the summer of 1999| it was four boyson a quest to lose their virginity. Now Kara is a cute high school senior looking for the perfect guy to lose her virginity to.

    http://imdb.com/title/tt1605630/

    http://www.imdb.com/title/tt1605630/

    image

    image

    image

    image

    image

    MediaInfo:

    Video

    ID                                       : 1

    Format                                   : AVC

    Format/Info                              : Advanced Video Codec

    Format profile                           : [email protected]

    Format settings, CABAC                   : Yes

    Format settings, ReFrames                : 4 frames

    Codec ID                                 : avc1

    Codec ID/Info                            : Advanced Video Coding

    Duration                                 : 1h 53mn

    Bit rate                                 : 1 500 Kbps

    Width                                    : 1 280 pixels

    Height                                   : 694 pixels

    Display aspect ratio                     : 1.85:1

    Frame rate mode                          : Constant

    Frame rate                               : 23.976 fps

    Color space                              : YUV

    Chroma subsampling                       : 4:2:0

    Bit depth                                : 8 bits

    Scan type                                : Progressive

    Bits/(Pixel*Frame)                       : 0.070

    Stream size                              : 1.19 GiB (87%)

    Writing library                          : x264 core 144 r2525M 40bb568

    Encoding settings                        : cabac=1 / ref=4 / deblock=1:-1:-1 / analyse=0x3:0x113 / me=umh / subme=9 / psy=1 / psyrd=1.00:0.15 / mixedref=1 / merange=24 / chromame=1 / trellis=2 / 8x8dct=1 / cqm=0 / deadzone=21,11 / fastpskip=1 / chromaqpoffset=-3 / threads=32 / lookaheadthreads=4 / slicedthreads=0 / nr=0 / decimate=1 / interlaced=0 / bluraycompat=0 / constrainedintra=0 / bframes=3 / bpyramid=2 / badapt=1 / bbias=0 / direct=1 / weightb=1 / opengop=0 / weightp=2 / keyint=250 / keyintmin=25 / scenecut=40 / intrarefresh=0 / rclookahead=50 / rc=2pass / mbtree=1 / bitrate=1500 / ratetol=1.0 / qcomp=0.60 / qpmin=0 / qpmax=69 / qpstep=4 / cplxblur=20.0 / qblur=0.5 / vbvmaxrate=31250 / vbvbufsize=31250 / nalhrd=none / filler=0 / ipratio=1.40 / aq=3:1.00

    Encoded date                             : UTC 1904-01-01 00:00:00

    Tagged date                              : UTC 1904-01-01 00:00:00

    Audio

    ID                                       : 2

    Format                                   : AAC

    Format/Info                              : Advanced Audio Codec

    Format profile                           : LC

    Codec ID                                 : 40

    Duration                                 : 1h 53mn

    Bit rate mode                            : Constant

    Bit rate                                 : 224 Kbps

    Channel(s)                               : 2 channels

    Channel(s)_Original                      : 6 channels

    Channel positions                        : Front: L C R, Side: L R, LFE

    Sampling rate                            : 48.0 KHz

    Compression mode                         : Lossy

    Stream size                              : 182 MiB (13%)

    Language                                 : English

    Encoded date                             : UTC 1904-01-01 00:00:00

    Tagged date                              : UTC 1904-01-01 00:00:00

    Menu #1

    ID                                       : 3

    Codec ID                                 : text

    Duration                                 : 1h 53mn

    Language                                 : English

    Encoded date                             : UTC 1904-01-01 00:00:00

    Tagged date                              : UTC 1904-01-01 00:00:00

    Bit rate mode                            : CBR

    00:00:00.000                             : 00:00:00.000

    00:04:48.790                             : 00:04:48.747

    00:08:58.331                             : 00:08:58.288

    00:14:26.283                             : 00:14:26.240

    00:18:52.216                             : 00:18:52.173

    00:23:37.667                             : 00:23:37.624

    00:27:29.190                             : 00:27:29.147

    00:32:01.671                             : 00:32:01.628

    00:40:35.893                             : 00:40:35.850

    00:45:55.170                             : 00:45:55.127

    00:52:51.378                             : 00:52:51.335

    00:59:54.800                             : 00:59:54.757

    01:06:20.603                             : 01:06:20.560

    01:10:36.066                             : 01:10:36.023

    01:14:37.641                             : 01:14:37.598

    01:23:36.012                             : 01:23:35.969

    01:28:30.348                             : 01:28:30.305

    01:36:36.500                             : 01:36:36.457

    01:43:10.685                             : 01:43:10.642

    01:49:15.216                             : 01:49:15.173

    Menu #2

    00:00:00.043                             : 00:00:00.000

    00:04:48.790                             : 00:04:48.747

    00:08:58.331                             : 00:08:58.288

    00:14:26.283                             : 00:14:26.240

    00:18:52.216                             : 00:18:52.173

    00:23:37.667                             : 00:23:37.624

    00:27:29.190                             : 00:27:29.147

    00:32:01.671                             : 00:32:01.628

    00:40:35.893                             : 00:40:35.850

    00:45:55.170                             : 00:45:55.127

    00:52:51.378                             : 00:52:51.335

    00:59:54.800                             : 00:59:54.757

    01:06:20.603                             : 01:06:20.560

    01:10:36.066                             : 01:10:36.023

    01:14:37.641                             : 01:14:37.598

    01:23:36.012                             : 01:23:35.969

    01:28:30.348                             : 01:28:30.305

    01:36:36.500                             : 01:36:36.457

    01:43:10.685                             : 01:43:10.642

    01:49:15.216                             : 01:49:15.173


    More at ibit.to
    And ibit.uno
    And ibit.am
    And ibit.ws

    Reviews

    Comments

    Files

    American.Reunion.2012.UNRATED.720p.BluRay.H264.AAC-RARBG.mp4 1.4 GB
    American.Reunion.2012.UNRATED.720p.BluRay.H264.AAC-RARBG.nfo 6.4 kB
    RARBG.COM.mp4 993 kB
    RARBG.COM.txt 30 B
    Subs/subs.srt 136 kB
    American.Reunion.2012.UNRATED.720p.BluRay.H264.AACRARBG -
    American.Reunion.2012.UNRATED.720p.BluRay.H264.AACRARBG.mp4 1.4 GB
    American.Reunion.2012.UNRATED.720p.BluRay.H264.AACRARBG.nfo 6.4 kB
    /subs.srt 136 kB

    Stream

    Downloading Seeding American.Reunion.2012.UNRATED.720p.BluRay.H264.AAC-RARBG from to 0 peers.
    of
    0 b/s / ↗0 b/s