• 1
  • 0
  • 1
Sponsored Downloadondemand_video
62%

American Reunion (2012)

  • Comedy
  • The characters we met a little more than a decade ago return to East Great Falls for their high-school reunion. In one long-overdue weekend, they will discover what has changed, who hasn’t, and that time and distance can’t break the bonds of friendship.

    expand_more
    English
  • $50,000,000
  • Description

    Over a decade has passed and the gang return to East Great Falls| Michigan| for the weekend. They will discover how their lives have developed as they gather fortheir high school reunion. How has life treated Michelle| Jim| Heather| Oz| Kevin| Vicky| Finch| Stifler| and Stifler's mom? In the summer of 1999| it was four boyson a quest to lose their virginity. Now Kara is a cute high school senior looking for the perfect guy to lose her virginity to.

    http://imdb.com/title/tt1605630/

    image

    image

    image

    image

    image

    image

    MediaInfo:

    Video

    ID                                       : 1

    Format                                   : AVC

    Format/Info                              : Advanced Video Codec

    Format profile                           : High@L4.1

    Format settings, CABAC                   : Yes

    Format settings, ReFrames                : 4 frames

    Codec ID                                 : V_MPEG4/ISO/AVC

    Duration                                 : 1h 53mn

    Bit rate                                 : 15.1 Mbps

    Width                                    : 1 920 pixels

    Height                                   : 1 040 pixels

    Display aspect ratio                     : 1.85:1

    Frame rate mode                          : Constant

    Frame rate                               : 23.976 fps

    Color space                              : YUV

    Chroma subsampling                       : 4:2:0

    Bit depth                                : 8 bits

    Scan type                                : Progressive

    Bits/(Pixel*Frame)                       : 0.316

    Stream size                              : 12.0 GiB (89%)

    Writing library                          : x264 core 125 r2200kMod 999b753

    Encoding settings                        : cabac=1 / ref=4 / deblock=1:-3:-3 / analyse=0x3:0x113 / me=umh / subme=11 / psy=1 / fadecompensate=0.00 / psyrd=1.25:0.00 / mixedref=1 / merange=32 / chromame=1 / trellis=2 / 8x8dct=1 / cqm=0 / deadzone=21,11 / fastpskip=0 / chromaqpoffset=-2 / threads=6 / lookaheadthreads=1 / slicedthreads=0 / nr=0 / decimate=0 / interlaced=0 / bluraycompat=0 / constrainedintra=0 / bframes=8 / bpyramid=2 / badapt=2 / bbias=0 / direct=3 / weightb=1 / opengop=0 / weightp=2 / keyint=250 / keyintmin=23 / scenecut=40 / intrarefresh=0 / rc=crf / mbtree=0 / crf=19.0000 / qcomp=0.60 / qpmin=0 / qpmax=69 / qpstep=4 / ipratio=1.45 / pbratio=1.35 / aq=1:0.60

    Language                                 : English

    Default                                  : Yes

    Forced                                   : No

    Audio

    ID                                       : 2

    Format                                   : DTS

    Format/Info                              : Digital Theater Systems

    Mode                                     : 16

    Format settings, Endianness              : Big

    Codec ID                                 : A_DTS

    Duration                                 : 1h 53mn

    Bit rate mode                            : Constant

    Bit rate                                 : 1 509 Kbps

    Channel(s)                               : 6 channels

    Channel positions                        : Front: L C R, Side: L R, LFE

    Sampling rate                            : 48.0 KHz

    Bit depth                                : 24 bits

    Compression mode                         : Lossy

    Stream size                              : 1.20 GiB (9%)

    Language                                 : English

    Default                                  : Yes

    Forced                                   : No

    Text

    ID                                       : 3

    Format                                   : UTF-8

    Codec ID                                 : S_TEXT/UTF8

    Codec ID/Info                            : UTF-8 Plain Text

    Language                                 : English

    Default                                  : No

    Forced                                   : No

    Menu

    00:00:00.000                             : en:00:00:00.000

    00:04:48.747                             : en:00:04:48.747

    00:08:58.288                             : en:00:08:58.288

    00:14:26.240                             : en:00:14:26.240

    00:18:52.173                             : en:00:18:52.173

    00:23:37.624                             : en:00:23:37.624

    00:27:29.147                             : en:00:27:29.147

    00:32:01.628                             : en:00:32:01.628

    00:40:35.850                             : en:00:40:35.850

    00:45:55.127                             : en:00:45:55.127

    00:52:51.335                             : en:00:52:51.335

    00:59:54.757                             : en:00:59:54.757

    01:06:20.560                             : en:01:06:20.560

    01:10:36.023                             : en:01:10:36.023

    01:14:37.598                             : en:01:14:37.598

    01:23:35.969                             : en:01:23:35.969

    01:28:30.305                             : en:01:28:30.305

    01:36:36.457                             : en:01:36:36.457

    01:43:10.642                             : en:01:43:10.642

    01:49:15.173                             : en:01:49:15.173


    More at ibit.to
    And ibit.uno
    And ibit.ws

    Reviews

    Comments

    2 years ago

    Seed please!

    Files

    American.Reunion.2012.UNRATED.1080p.BluRay.x264.DTS-FGT.mkv 14 GB
    American.Reunion.2012.UNRATED.1080p.BluRay.x264.DTS-FGT.nfo 5.3 kB
    RARBG.com.txt 30 B
    American.Reunion.2012.UNRATED.1080p.BluRay.x264.DTSFGT -
    American.Reunion.2012.UNRATED.1080p.BluRay.x264.DTSFGT.mkv 14 GB
    American.Reunion.2012.UNRATED.1080p.BluRay.x264.DTSFGT.nfo 5.3 kB

    Stream

    Downloading Seeding American.Reunion.2012.UNRATED.1080p.BluRay.x264.DTS-FGT from to 0 peers.
    of
    0 b/s / ↗0 b/s