• 0
  • 0
  • 473
Anonymous Downloadondemand_video
  • American.Pie.Reunion.2012.TS.V2.XviD.AC3-ADTRG
  • 1.3 GB
  • maximersk
  • American Reunion 2012 XviD ADTRG
  • English
  • Divx/Xvid
Warning! Use a VPN When Downloading Torrents!
Your IP Address is ,
Your Internet Provider can see when you download torrents! Hide your IP ADDRESS with a VPN
We strongly recommend hide.me VPN to hide your torrenting. It's FREE!
DOWNLOAD VPN
62%

American Reunion (2012)

  • Comedy
  • The characters we met a little more than a decade ago return to East Great Falls for their high-school reunion. In one long-overdue weekend, they will discover what has changed, who hasn’t, and that time and distance can’t break the bonds of friendship.

    expand_more
    English
  • $50,000,000
  • Description

    American.Pie.Reunion.2012.TS.V2.XviD.AC3-ADTRG

    Jim, Michelle, Stifler, and their friends reunite in East Great Falls, Michigan for their high school reunion.

    American.Pie.Reunion.2012.TS.V2.XviD.AC3-ADTRG

    Jim, Michelle, Stifler, and their friends reunite in East Great Falls, Michigan for their high school reunion.

    http://www.imdb.com/title/tt1605630/

    Source - American Reunion 2012 Cam XviD-RiPRG Thanks

    LiNe Audio - Dragon Exclusive , cheers Bro for the awesome quality Line

    Complete name : American.Pie.Reunion.2012.TS.V2.XviD.AC3-ADTRG.avi

    Format : AVI

    Format/Info : Audio Video Interleave

    File size : 1.26 GiB

    Duration : 1h 46mn

    Overall bit rate : 1 698 Kbps

    Writing library : VirtualDub build 34703/release

    Video

    ID : 0

    Format : MPEG-4 Visual

    Codec ID : XVID

    Duration : 1h 46mn

    Bit rate : 1 495 Kbps

    Width : 720 pixels

    Height : 336 pixels

    Display aspect ratio : 2.2:1

    Frame rate : 29.970 fps

    Stream size : 1.11 GiB (88%)

    Audio

    ID : 1

    Format : AC-3

    Bit rate : 192 Kbps

    Channel(s) : 2 channels

    Stream size : 146 MiB (11%)


    More at ibit.to
    And ibit.uno
    And ibit.am
    And ibit.ws

    Reviews

    Comments

    Files

    American.Pie.Reunion.2012.TS.V2.XviD.AC3-ADTRG.avi 1.3 GB
    American.Pie.Reunion.2012.TS.V2.XviD.AC3-ADTRG.nfo 2.1 kB
    Sample.avi 6.7 MB
    www.UsaBit.com.txt -

    Stream

    Downloading Seeding American.Pie.Reunion.2012.TS.V2.XviD.AC3-ADTRG from to 0 peers.
    of
    0 b/s / ↗0 b/s