• 1
  • 0
  • done
Sponsored Downloadondemand_video
62%

American Reunion (2012)

  • Comedy
  • The characters we met a little more than a decade ago return to East Great Falls for their high-school reunion. In one long-overdue weekend, they will discover what has changed, who hasn’t, and that time and distance can’t break the bonds of friendship.

    expand_more
    English
  • $50,000,000
  • Description

    American Pie - American Reunion - Ancora insieme (2012) BRrip.XviD - Italian English.Ac3.5.1.Sub.Ita.Eng.MIRCrew

    **image

    **

    ** NO FOUND ONLY ORIGINAL RELEASE **

    **

    American Pie - American Reunion (2012)

    image

    image

    image

    USCITA CINEMA: 04/05/2012

    GENERE: Commedia

    REGIA: Jon Hurwitz, Hayden Schlossberg

    SCENEGGIATURA: Jon Hurwitz, Hayden Schlossberg

    FOTOGRAFIA: Daryn Okada

    MONTAGGIO: Jeff Betancourt

    MUSICHE: Lyle Workman

    PRODUZIONE: Universal Pictures

    DISTRIBUZIONE: Universal Pictures

    PAESE: USA 2012

    DURATA: 113 Min

    FORMATO: Colore

    image

    Jason Biggs, Alyson Hannigan, Chris Klein, Thomas Ian Nicholas, Tara Reid, Seann William Scott, Mena Suvari, Eddie Kaye Thomas, Eugene Levy, Jennifer Coolidge, Natasha Lyonne, Dania Ramirez, John Cho, Katrina Bowden, Jay Harrington, Chuck Hittinger, Shannon Elizabeth, Chris Owen, Justin Isfeld, Charlene Amoia

    image.

    Tutti i personaggi di American Pie che abbiamo conosciuto più di 10 anni fa fanno ritorno alla cittadina di East Great Falls per una riunione dei compagni delle scuole superiori. In un weekend molto atteso, scopriranno cosa è cambiato, chi è rimasto sempre lo stesso e che il tempo e la distanza non possono rompere il legame dell'amicizia. Era l'estate del 1999 quando quattro ragazzi della piccola città del Michigan iniziarono la loro ricerca sulla sessualità..........

    image

    Over a decade has passed and the gang return to East Great Falls, Michigan, for the weekend. They will discover how their lives have developed as they gather for their high school reunion. How has life treated Michelle, Jim, Heather, Oz, Kevin, Vicky, Finch, Stifler, and Stifler's mom? In the summer of 1999....

    image image image

    image

    image

    image

    [spoiler]

    General

    Complete name : American Pie - American Reunion (2012).ita.eng.sub.ita.eng.MIRCrewAmerican Pie - American Reunion (2012).ita.eng.sub.ita.eng.MIRCrew.avi

    Format : AVI

    Format/Info : Audio Video Interleave

    File size : 1.90 GiB

    Duration : 1h 52mn

    Overall bit rate : 2 410 Kbps

    Writing application : VirtualDubMod 1.5.10.2 (build 2540/release)

    Writing library : VirtualDubMod build 2540/release

    Video

    ID : 0

    Format : MPEG-4 Visual

    Format profile : [email protected]
    Format settings, BVOP : No

    Format settings, QPel : No

    Format settings, GMC : No warppoints

    Format settings, Matrix : Default (H.263)

    Codec ID : XVID

    Codec ID/Hint : XviD

    Duration : 1h 52mn

    Bit rate : 1 500 Kbps

    Width : 720 pixels

    Height : 386 pixels

    Display aspect ratio : 16:9

    Frame rate : 23.976 fps

    Color space : YUV

    Chroma subsampling : 4:2:0

    Bit depth : 8 bits

    Scan type : Progressive

    Compression mode : Lossy

    Bits/(Pixel*Frame) : 0.225

    Stream size : 1.18 GiB (62%)

    Writing library : XviD 64

    Audio #1

    ID : 1

    Format : AC-3

    Format/Info : Audio Coding 3

    Mode extension : CM (complete main)

    Codec ID : 2000

    Duration : 1h 52mn

    Bit rate mode : Constant

    Bit rate : 448 Kbps

    Channel(s) : 6 channels

    Channel positions : Front: L C R, Side: L R, LFE

    Sampling rate : 48.0 KHz

    Bit depth : 16 bits

    Compression mode : Lossy

    Stream size : 362 MiB (19%)

    Alignment : Split accross interleaves

    Interleave, duration : 42 ms (1.00 video frame)

    Interleave, preload duration : 500 ms

    Audio #2

    ID : 2

    Format : AC-3

    Format/Info : Audio Coding 3

    Mode extension : CM (complete main)

    Codec ID : 2000

    Duration : 1h 52mn

    Bit rate mode : Constant

    Bit rate : 448 Kbps

    Channel(s) : 6 channels

    Channel positions : Front: L C R, Side: L R, LFE

    Sampling rate : 48.0 KHz

    Bit depth : 16 bits

    Compression mode : Lossy

    Stream size : 362 MiB (19%)

    Alignment : Split accross interleaves

    Interleave, duration : 42 ms (1.00 video frame)

    Interleave, preload duration : 500 ms

    [/spoiler]

    **


    More at ibit.to
    And ibit.uno
    And ibit.ws

    Reviews

    Comments

    Files

    American Pie - American Reunion (2012).ita.eng.sub.ita.eng.MIRCrew.avi 1.9 GB
    American Pie - American Reunion (2012).ita.eng.sub.ita.eng.MIRCrew.eng.srt 145 kB
    American Pie - American Reunion (2012).ita.eng.sub.ita.eng.MIRCrew.ita.srt 126 kB
    American Pie - American Reunion (2012).ita.eng.sub.ita.eng.MIRCrew.srt 700 B
    American Pie - American Reunion (2012).ita.eng.sub.ita.eng.MIRCrew/American Pie American Reunion (2012).ita.eng.sub.ita.eng.MIRCrew -
    American Pie - American Reunion (2012).ita.eng.sub.ita.eng.MIRCrew/American Pie American Reunion (2012).ita.eng.sub.ita.eng.MIRCrew.avi 1.9 GB
    American Pie - American Reunion (2012).ita.eng.sub.ita.eng.MIRCrew/American Pie American Reunion (2012).ita.eng.sub.ita.eng.MIRCrew.eng.srt 145 kB
    American Pie - American Reunion (2012).ita.eng.sub.ita.eng.MIRCrew/American Pie American Reunion (2012).ita.eng.sub.ita.eng.MIRCrew.ita.srt 126 kB
    American Pie - American Reunion (2012).ita.eng.sub.ita.eng.MIRCrew/American Pie American Reunion (2012).ita.eng.sub.ita.eng.MIRCrew.srt 762 B

    Stream

    Downloading Seeding American Pie - American Reunion - Ancora insieme (2012) BRrip.XviD - Italian English.Ac3.5.1.Sub.Ita.Eng.MIRCrew from to 0 peers.
    of
    0 b/s / ↗0 b/s