• 0
  • 0
Sponsored Downloadondemand_video
  • American.Pie.1999.UNRATED.720p.BluRay.H264.AAC-RARBG
  • 1.2 GB
  • American 1999 UNRATED 720p BluRay H264 RARBG
  • English
  • x264/720
64%

American Pie (1999)

  • Comedy Romance
  • At a high-school party, four friends find that losing their collective virginity isn't as easy as they had thought. But they still believe that they need to do so before college. To motivate themselves, they enter a pact to all "score." by their senior prom.

    expand_more
    English
  • $11,000,000
  • Description

    Jim| Oz| Finch and Kevin are four friends who make a pact that before they graduate they will all lose their virginity. The hard job now is how to reach that goal byprom night. Whilst Oz begins singing to grab attention and Kevin tries to persuade his girlfriend| Finch tries any easy route of spreading rumors and Jim failsmiserably. Whether it is being caught on top of a pie or on the Internet| Jim always end up with his trusty sex advice from his father. Will they achieve their goalof getting laid by prom night? or will they learn something much different.

    http://imdb.com/title/tt0163651/

    http://www.imdb.com/title/tt0163651/

    image

    image

    image

    image

    image

    MediaInfo:

    Video

    ID                                       : 1

    Format                                   : AVC

    Format/Info                              : Advanced Video Codec

    Format profile                           : High@L4.1

    Format settings, CABAC                   : Yes

    Format settings, ReFrames                : 4 frames

    Codec ID                                 : avc1

    Codec ID/Info                            : Advanced Video Coding

    Duration                                 : 1h 35mn

    Bit rate                                 : 1 500 Kbps

    Width                                    : 1 280 pixels

    Height                                   : 694 pixels

    Display aspect ratio                     : 1.85:1

    Frame rate mode                          : Constant

    Frame rate                               : 23.976 fps

    Color space                              : YUV

    Chroma subsampling                       : 4:2:0

    Bit depth                                : 8 bits

    Scan type                                : Progressive

    Bits/(Pixel*Frame)                       : 0.070

    Stream size                              : 1.00 GiB (87%)

    Writing library                          : x264 core 144 r2525M 40bb568

    Encoding settings                        : cabac=1 / ref=4 / deblock=1:-1:-1 / analyse=0x3:0x113 / me=umh / subme=9 / psy=1 / psyrd=1.00:0.15 / mixedref=1 / merange=24 / chromame=1 / trellis=2 / 8x8dct=1 / cqm=0 / deadzone=21,11 / fastpskip=1 / chromaqpoffset=-3 / threads=32 / lookaheadthreads=4 / slicedthreads=0 / nr=0 / decimate=1 / interlaced=0 / bluraycompat=0 / constrainedintra=0 / bframes=3 / bpyramid=2 / badapt=1 / bbias=0 / direct=1 / weightb=1 / opengop=0 / weightp=2 / keyint=250 / keyintmin=25 / scenecut=40 / intrarefresh=0 / rclookahead=50 / rc=2pass / mbtree=1 / bitrate=1500 / ratetol=1.0 / qcomp=0.60 / qpmin=0 / qpmax=69 / qpstep=4 / cplxblur=20.0 / qblur=0.5 / vbvmaxrate=31250 / vbvbufsize=31250 / nalhrd=none / filler=0 / ipratio=1.40 / aq=3:1.00

    Encoded date                             : UTC 1904-01-01 00:00:00

    Tagged date                              : UTC 1904-01-01 00:00:00

    Audio

    ID                                       : 2

    Format                                   : AAC

    Format/Info                              : Advanced Audio Codec

    Format profile                           : LC

    Codec ID                                 : 40

    Duration                                 : 1h 35mn

    Bit rate mode                            : Constant

    Bit rate                                 : 224 Kbps

    Channel(s)                               : 2 channels

    Channel(s)_Original                      : 6 channels

    Channel positions                        : Front: L C R, Side: L R, LFE

    Sampling rate                            : 48.0 KHz

    Compression mode                         : Lossy

    Stream size                              : 153 MiB (13%)

    Language                                 : English

    Encoded date                             : UTC 1904-01-01 00:00:00

    Tagged date                              : UTC 1904-01-01 00:00:00

    Menu #1

    ID                                       : 3

    Codec ID                                 : text

    Duration                                 : 1h 35mn

    Language                                 : English

    Encoded date                             : UTC 1904-01-01 00:00:00

    Tagged date                              : UTC 1904-01-01 00:00:00

    Bit rate mode                            : CBR

    00:00:00.000                             : 00:00:00.000

    00:01:38.975                             : 00:01:38.932

    00:04:00.366                             : 00:04:00.323

    00:06:19.172                             : 00:06:19.129

    00:12:19.824                             : 00:12:19.781

    00:16:48.592                             : 00:16:48.549

    00:24:08.281                             : 00:24:08.238

    00:27:53.798                             : 00:27:53.755

    00:31:33.101                             : 00:31:33.058

    00:35:52.485                             : 00:35:52.442

    00:42:46.732                             : 00:42:46.689

    01:00:11.442                             : 01:00:11.399

    01:03:41.402                             : 01:03:41.359

    01:07:41.767                             : 01:07:41.724

    01:11:02.426                             : 01:11:02.383

    01:16:47.479                             : 01:16:47.436

    01:27:13.813                             : 01:27:13.770

    01:31:27.483                             : 01:31:27.440

    Menu #2

    00:00:00.043                             : 00:00:00.000

    00:01:38.975                             : 00:01:38.932

    00:04:00.366                             : 00:04:00.323

    00:06:19.172                             : 00:06:19.129

    00:12:19.824                             : 00:12:19.781

    00:16:48.592                             : 00:16:48.549

    00:24:08.281                             : 00:24:08.238

    00:27:53.798                             : 00:27:53.755

    00:31:33.101                             : 00:31:33.058

    00:35:52.485                             : 00:35:52.442

    00:42:46.732                             : 00:42:46.689

    01:00:11.442                             : 01:00:11.399

    01:03:41.402                             : 01:03:41.359

    01:07:41.767                             : 01:07:41.724

    01:11:02.426                             : 01:11:02.383

    01:16:47.479                             : 01:16:47.436

    01:27:13.813                             : 01:27:13.770

    01:31:27.483                             : 01:31:27.440


    More at ibit.to
    And ibit.uno
    And ibit.ws

    Reviews

    Comments

    Files

    American.Pie.1999.UNRATED.720p.BluRay.H264.AAC-RARBG.mp4 1.2 GB
    American.Pie.1999.UNRATED.720p.BluRay.H264.AAC-RARBG.nfo 6.2 kB
    RARBG.COM.mp4 993 kB
    RARBG.COM.txt 30 B

    Stream

    Downloading Seeding American.Pie.1999.UNRATED.720p.BluRay.H264.AAC-RARBG from to 0 peers.
    of
    0 b/s / ↗0 b/s