• 1
  • -
  • done
Anonymous Downloadondemand_video
  • American.Animals.2018.SUB.REMUX.mkv
  • 33 GB
  • mike7025
  • American Animals 2018 SUB REMUX mkv
  • HD Video
Warning! Use a VPN When Downloading Torrents!
Your IP Address is ,
Your Internet Provider can see when you download torrents! Hide your IP ADDRESS with a VPN
We strongly recommend Trust.Zone VPN to hide your torrenting. It's FREE!
DOWNLOAD VPN
69%

American Animals (2018)

  • Drama Crime Documentary
  • Lexington, Kentucky, 2004. Four young men attempt to execute one of the most audacious art heists in the history of the United States.

    expand_more
    English
  • $3,000,000
  • Description

    Американские животные / American Animals

    image

    Страна : Великобритания, США

    Жанр : Драма, криминал

    Год выпуска : 2018

    Продолжительность : 01:56:54

    Перевод :

    Субтитры

    Субтитры : Русские х2 (FOCS, PhysKids), английские

    Оригинальная аудиодорожка : Английский

    Режиссер : Барт Лэйтон / Bart Layton

    В ролях : Эван Питерс, Энн Дауд, Барри Кеоган, Блейк Дженнер, Удо Кир, Джаред Абрахамсон, Дрю Старки, Уэйн Дювалл, Лара Грайс, Гэри Басараба

    Описание : Основан на реальных событиях. История четырех молодых людей, которые предпринимают попытку совершить одно из самых дерзких ограблений в истории США - похитить одну из самых дорогих книг в мире - «Птицы Америки» Джона Джеймса Одюбона.

    Ненормативная лексика

    image image

    Сэмпл

    https://yadi.sk/i/H6UP7xVy3aZBRv

    Тип релиза : BDRemux 1080p

    Контейнер : MKV

    Видео : MPEG-4 AVC, 1080p, 1920:1080, 35.2 Mb/s, 23.976 fps

    Аудио : DTS-HD MA, 6 ch, 48 kHz, 2416 kbps, 24-bit (DTS Core: 6 ch, 48 kHz, 1509 kbps) Английский

    Формат субтитров : SRT

    MediaInfo

    `General
    Unique ID : 2201544595272534372652420844933679890 (0x1A8008765A057A6127CE9E729650B12)
    Complete name : G:ФИЛЬМЫRuTRACKERAmerican.Animals.2018.SUB.REMUX.mkv
    Format : Matroska
    Format version : Version 4 / Version 2
    File size : 30.7 GiB
    Duration : 1 h 56 min
    Overall bit rate mode : Variable
    Overall bit rate : 37.6 Mb/s
    Encoded date : UTC 2018-08-25 17:28:56
    Writing application : mkvmerge v20.0.0 ('I Am The Sun') 64-bit
    Writing library : libebml v1.3.5 + libmatroska v1.4.8

    Video
    ID : 1
    Format : AVC
    Format/Info : Advanced Video Codec
    Format profile : [email protected]
    Format settings : CABAC / 4 Ref Frames
    Format settings, CABAC : Yes
    Format settings, RefFrames : 4 frames
    Codec ID : V_MPEG4/ISO/AVC
    Duration : 1 h 56 min
    Bit rate mode : Variable
    Bit rate : 35.2 Mb/s
    Maximum bit rate : 37.0 Mb/s
    Width : 1 920 pixels
    Height : 1 080 pixels
    Display aspect ratio : 16:9
    Frame rate mode : Constant
    Frame rate : 23.976 (24000/1001) FPS
    Color space : YUV
    Chroma subsampling : 4:2:0
    Bit depth : 8 bits
    Scan type : Progressive
    Bits/(Pixel*Frame) : 0.708
    Stream size : 28.7 GiB (94%)
    Language : English
    Default : Yes
    Forced : No

    Audio
    ID : 2
    Format : DTS
    Format/Info : Digital Theater Systems
    Format profile : MA / Core
    Codec ID : A_DTS
    Duration : 1 h 56 min
    Bit rate mode : Variable / Constant
    Bit rate : 2 416 kb/s / 1 509 kb/s
    Channel(s) : 6 channels
    Channel positions : Front: L C R, Side: L R, LFE
    Sampling rate : 48.0 kHz
    Frame rate : 93.750 FPS (512 SPF)
    Bit depth : 24 bits
    Compression mode : Lossless / Lossy
    Stream size : 1.97 GiB (6%)
    Language : English
    Default : Yes
    Forced : No

    Text #1
    ID : 3
    Format : UTF-8
    Codec ID : S_TEXT/UTF8
    Codec ID/Info : UTF-8 Plain Text
    Duration : 1 h 51 min
    Bit rate : 91 b/s
    Count of elements : 1434
    Stream size : 74.5 KiB (0%)
    Title : FOCS
    Language : Russian
    Default : Yes
    Forced : Yes

    Text #2
    ID : 4
    Format : UTF-8
    Codec ID : S_TEXT/UTF8
    Codec ID/Info : UTF-8 Plain Text
    Duration : 1 h 51 min
    Bit rate : 90 b/s
    Count of elements : 1412
    Stream size : 73.8 KiB (0%)
    Title : PhysKids
    Language : Russian
    Default : No
    Forced : No

    Text #3
    ID : 5
    Format : UTF-8
    Codec ID : S_TEXT/UTF8
    Codec ID/Info : UTF-8 Plain Text
    Duration : 1 h 49 min
    Bit rate : 59 b/s
    Count of elements : 1402
    Stream size : 48.0 KiB (0%)
    Language : English
    Default : No
    Forced : No

    Menu
    00:00:00.000 : en:Chapter 01
    00:06:57.583 : en:Chapter 02
    00:14:58.856 : en:Chapter 03
    00:21:21.947 : en:Chapter 04
    00:27:23.808 : en:Chapter 05
    00:36:22.805 : en:Chapter 06
    00:41:42.124 : en:Chapter 07
    00:48:53.305 : en:Chapter 08
    00:54:59.296 : en:Chapter 09
    01:04:23.067 : en:Chapter 10
    01:11:11.767 : en:Chapter 11
    01:16:28.375 : en:Chapter 12
    01:24:47.707 : en:Chapter 13
    01:30:18.996 : en:Chapter 14
    01:37:15.788 : en:Chapter 15
    01:45:36.455 : en:Chapter 16 `

    Скриншоты

    image image image image image image image image

    Субтитры

    1042
    01:18:06,655 --> 01:18:08,921
    – Простите. Не сопротивляйтесь.
    – Нет, отпустите меня!

    1043
    01:18:08,923 --> 01:18:10,756
    – Нам нужны книги!
    Мы ничего вам не сделаем!
    – Нет!

    1044
    01:18:10,758 --> 01:18:12,559
    Успокойтесь, мы сейчас уйдём.

    1045
    01:18:12,561 --> 01:18:15,295
    Нет, я не могу!

    1046
    01:18:15,297 --> 01:18:18,332
    Да заткнись ты! Заткнись!

    1047
    01:18:18,334 --> 01:18:19,632
    И всё обойдётся.

    1048
    01:18:19,634 --> 01:18:21,635
    Если будешь сопротивляться,
    то будет намного больнее!

    1049
    01:18:21,637 --> 01:18:22,802
    Заткнись!

    1050
    01:18:22,804 --> 01:18:26,206
    – Свяжи ей ноги.
    – Господи, помоги.

    1051
    01:18:28,444 --> 01:18:31,644
    Свяжи ей ноги, твою мать!

    1052
    01:18:31,646 --> 01:18:34,547
    Не связывайте руки, прошу вас…

    1053
    01:18:34,549 --> 01:18:36,850
    – Я этого не вынесу.
    – Чёрт подери.

    1054
    01:18:36,852 --> 01:18:40,186
    – Боже, спаси меня…
    – Чёрт, чёрт.

    1055
    01:18:40,188 --> 01:18:42,055
    Нахера ты напяливаешь перчатки?!

    1056
    01:18:42,057 --> 01:18:44,457
    – Отпустите, отпустите меня.
    – Скорее! Скорее!

    1057
    01:18:44,459 --> 01:18:45,891
    Да не дёргайся ты.

    1058
    01:18:45,893 --> 01:18:47,793
    – Не могу дышать, мне больно.
    – Можешь помолчать?

    1059
    01:18:47,795 --> 01:18:49,932
    Да перестань ты… О, чёрт.

    1060
    01:18:52,368 --> 01:18:55,034
    – Блядь.
    – Зачем? Зачем вы это делаете?

    1061
    01:18:55,036 --> 01:18:57,639
    – Зачем?
    – Из-за книг. Нам нужны книжки.

    1062
    01:18:58,072 --> 01:18:59,072
    Не вы.

    1063
    01:19:00,008 --> 01:19:01,944
    Связал? Связал?!

    1064
    01:19:11,419 --> 01:19:12,419
    Блядь.

    1065
    01:19:18,093 --> 01:19:19,559
    Ищи ключи.

    1066
    01:19:19,561 --> 01:19:21,360
    Ищи долбаные ключи!

    1067
    01:19:21,362 --> 01:19:22,632
    Шевелись, твою мать!

    1068
    01:19:31,173 --> 01:19:32,271
    Здесь нет ключей.

    1069
    01:19:32,273 --> 01:19:34,675
    – Что?
    – Здесь ни одного ключа!

    1070
    01:19:34,677 --> 01:19:36,676
    – Я не вижу ни одного ключа.
    – Найди чёртов ключ!

    1071
    01:19:36,678 --> 01:19:38,278
    – Проклятье!
    – Нет здесь никаких ключей.

    1072
    01:19:38,280 --> 01:19:40,350
    Нужно открыть грёбаную
    дверь и витрину.


    More at ibit.to
    And ibit.uno
    And ibit.ws

    Reviews

    If I had've known in advance that _American Animals_ was going to be a True Crime Doco that was 95% re-enactment, I probably wouldn't have watched it. Because that sounds like everything I hate about American television. Glad I didn't though, because that meant I did watch it, and _American Animals_ is actually quite good. _Final rating:★★★ - I liked it. Would personally recommend you give it a go._

    Comments

    1 year ago

    ПЕРЕВОД СУБТИТРЫ !!! Ненормативная лексика. На беглый взгляд, вторые ближе к тексту, но побольше мата соответственно Озвучка где-то есть, от кошары Граждане, большая просьба - если ресурсы позволяют, оставайтесь, пожалуйста, на раздаче, сколько возможно. Особенно не слишком популярных фильмов и объемных раздач типа дисков, ремуксов (с этим вообще беда) и если видите, что сидов мало. Ну и в принципе. Чтоб хотя бы два-три сида было. При отсутствии сидов через полгода раздача удаляется, т.е смысла нет их делать. Что смотреть будете... Только нужно обязательноНастроить прокси для анонсеровэто совсем не сложно. Иначе без толку, трекер вас не видит. А сам, например, я не могу все хранить/раздавать, места ж столько нет.

    1 year ago

    Смотрел этот фильм неделю назад с озвучкой от кошары, довольно не плохо, но реклама и озвучка...

    1 year ago

    Дорожка АС3 2 ch 192 kbps 160 Мб MVO HDrezka Studio, подогнанная. Цеплять не стал, потому что подозрительная, непонятно как получена.

    7 months ago

    mike7025 писал(а): 75881037Дорожка АС3 2 ch 192 kbps 160 Мб MVO HDrezka Studio, подогнанная. Цеплять не стал, потому что подозрительная, непонятно как получена. Смотрел с ней, все окей, рекламы нет.

    Files

    American.Animals.2018.SUB.REMUX.mkv 33 GB

    Stream

    Downloading Seeding American.Animals.2018.SUB.REMUX.mkv from to 0 peers.
    of
    0 b/s / ↗0 b/s