• 4
  • -
  • done
Download
  • America: The Motion Picture (Мэтт Томпсон
  • 4.7 GB
  • morzan
  • America Motion Picture
  • Иностранные мультфильмы

Description

Америка: Фильм / America: The Motion Picture

image

Страна : США

Жанр : фантастика, боевик, комедия

Продолжительность : 01:38:06

Год выпуска : 2021

Перевод : Профессиональный (дублированный) Пифагор

Перевод 2 : Субтитры

Русские субтитры : есть

Режиссёр : Мэтт Томпсон / Matt Thompson

Роли озвучивали : Ченнинг Татум, Саймон Пегг, Джейсон Манцукас, Оливия Манн,
Бобби Мойнахан, Джуди Грир, Уилл Форте, Энди Сэмберг

Описание : Отцы-основатели и их современники становятся супер-командой и устраивают Американскую революцию. С бензопилами, пушками, электричеством и робокопом они отправляются на борьбу с британскими колонизаторами.

Семпл : http://sendfile.su/1612201

Качество : WEB-DL 1080p

Формат : MKV

Видео : AVC ([email protected]), 1920x1080 (16:9), 24.000 fps, 5 800 kbps

Аудио : Russian, AC-3 (Dolby Digital), 48.0 kHz, 6 ch, 448 kbps | Пифагор

Аудио 2 : English, E-AC-3 (Dolby Digital Plus), 48.0 kHz, 6 ch, 640 kbps

Субтитры :
Russian Forced, UTF-8
Russian, UTF-8
Ukrainian, UTF-8
English SDH, UTF-8

Предыдущие и альтернативные раздачи

Подробные технические данные

`
General
Unique ID : 60063690407591588716415953076155537937 (0x2D2FD892F93B05D98CDECE13FDAB5A11)
Complete name : F:...America.The.Motion.Picture.2021.1080p.WEB-DL.H264-MorzanAmerica.The.Motion.Picture.2021.1080p.WEB-DL.H264-Morzan.mkv
Format : Matroska
Format version : Version 4
File size : 4.66 GiB
Duration : 1 h 38 min
Overall bit rate mode : Variable
Overall bit rate : 6 805 kb/s
Encoded date : UTC 2021-07-06 18:34:56
Writing application : mkvmerge v54.0.0 ('F Maj Pixie') 64-bit
Writing library : libebml v1.4.2 + libmatroska v1.6.3

Video
ID : 1
Format : AVC
Format/Info : Advanced Video Codec
Format profile : [email protected]
Format settings : CABAC / 3 Ref Frames
Format settings, CABAC : Yes
Format settings, Reference frames : 3 frames
Codec ID : VMPEG4/ISO/AVC
Duration : 1 h 38 min
Bit rate mode : Variable
Bit rate : 5 800 kb/s
Maximum bit rate : 8 700 kb/s
Width : 1 920 pixels
Height : 1 080 pixels
Display aspect ratio : 16:9
Frame rate mode : Constant
Frame rate : 24.000 FPS
Color space : YUV
Chroma subsampling : 4:2:0
Bit depth : 8 bits
Scan type : Progressive
Bits/(Pixel*Frame) : 0.117
Stream size : 3.92 GiB (84%)
Writing library : x264 core 148 r2722 1b0121b
Encoding settings : cabac=1 / ref=3 / deblock=1:0:0 / analyse=0x1:0x111 / me=umh / subme=10 / psy=1 / psy
rd=1.00:0.00 / mixedref=1 / merange=24 / chromame=1 / trellis=2 / 8x8dct=0 / cqm=0 / deadzone=21,11 / fastpskip=1 / chromaqpoffset=-2 / threads=8 / lookaheadthreads=1 / slicedthreads=0 / nr=0 / decimate=1 / interlaced=0 / bluraycompat=0 / stitchable=1 / constrainedintra=0 / bframes=2 / bpyramid=0 / badapt=2 / bbias=0 / direct=3 / weightb=1 / opengop=0 / weightp=2 / keyint=250 / keyintmin=24 / scenecut=0 / intrarefresh=0 / rclookahead=48 / rc=2pass / mbtree=1 / bitrate=5800 / ratetol=1.0 / qcomp=0.50 / qpmin=6 / qpmax=51 / qpstep=4 / cplxblur=20.0 / qblur=0.5 / vbvmaxrate=8700 / vbvbufsize=11600 / nalhrd=vbr / filler=0 / ip_ratio=1.40 / aq=1:1.00
Default : Yes
Forced : No

Audio #1
ID : 2
Format : AC-3
Format/Info : Audio Coding 3
Commercial name : Dolby Digital
Codec ID : A_AC3
Duration : 1 h 38 min
Bit rate mode : Constant
Bit rate : 448 kb/s
Channel(s) : 6 channels
Channel layout : L R C LFE Ls Rs
Sampling rate : 48.0 kHz
Frame rate : 31.250 FPS (1536 SPF)
Compression mode : Lossy
Stream size : 314 MiB (7%)
Language : Russian
Service kind : Complete Main
Default : Yes
Forced : No

Audio #2
ID : 3
Format : E-AC-3
Format/Info : Enhanced AC-3
Commercial name : Dolby Digital Plus
Codec ID : A_EAC3
Duration : 1 h 38 min
Bit rate mode : Constant
Bit rate : 640 kb/s
Channel(s) : 6 channels
Channel layout : L R C LFE Ls Rs
Sampling rate : 48.0 kHz
Frame rate : 31.250 FPS (1536 SPF)
Compression mode : Lossy
Stream size : 449 MiB (9%)
Language : English
Service kind : Complete Main
Default : No
Forced : No

Text #1
ID : 4
Format : UTF-8
Codec ID : S_TEXT/UTF8
Codec ID/Info : UTF-8 Plain Text
Duration : 1 h 36 min
Bit rate : 3 b/s
Count of elements : 69
Stream size : 2.72 KiB (0%)
Title : Forced
Language : Russian
Default : Yes
Forced : Yes

Text #2
ID : 5
Format : UTF-8
Codec ID : S_TEXT/UTF8
Codec ID/Info : UTF-8 Plain Text
Duration : 1 h 36 min
Bit rate : 122 b/s
Count of elements : 1653
Stream size : 86.6 KiB (0%)
Title : Russian
Language : Russian
Default : No
Forced : No

Text #3
ID : 6
Format : UTF-8
Codec ID : S_TEXT/UTF8
Codec ID/Info : UTF-8 Plain Text
Duration : 1 h 36 min
Bit rate : 131 b/s
Count of elements : 1654
Stream size : 93.3 KiB (0%)
Title : Ukrainian
Language : Ukrainian
Default : No
Forced : No

Text #4
ID : 7
Format : UTF-8
Codec ID : S_TEXT/UTF8
Codec ID/Info : UTF-8 Plain Text
Duration : 1 h 33 min
Bit rate : 95 b/s
Count of elements : 1836
Stream size : 65.2 KiB (0%)
Title : English [SDH]
Language : English
Default : No
Forced : No

`

Скриншоты

imageimageimage


More at ibit.to
And ibit.uno
And ibit.am
And ibit.ws

Comments

Files

Stream

Downloading Seeding America: The Motion Picture (Мэтт Томпсон from to 0 peers.
of
0 b/s / ↗0 b/s