• 0
  • 0
  • done
Anonymous Download
  • Alon Goldstein, Fine Arts Quartet - Mozart - Piano Concertos Nos. 20 & 21 (2017) [24-192]
  • 2.0 GB
  • ipokemongo
  • Alon Goldstein Fine Arts Quartet Mozart Piano Concertos Nos 2017 192
  • Hi-Res stereo и многоканальная
Warning! Use a VPN When Downloading Torrents!
Your IP Address is ,
Your Internet Provider can see when you download torrents! Hide your IP ADDRESS with a VPN
We strongly recommend Trust.Zone VPN to hide your torrenting. It's FREE!
DOWNLOAD VPN

Description

Alon Goldstein, Rachel Calin, Fine Arts Quartet / Mozart - Piano Concertos Nos. 20 & 21

image

Формат записи/Источник записи : [TR24][OF]

Наличие водяных знаков : Нет

Год издания/переиздания диска : 2017

Жанр : Classical

Издатель (лейбл) : Naxos

Продолжительность : 00:57:51

Наличие сканов в содержимом раздачи : Только обложка альбома

Треклист :

Mozart: Piano Concerto No. 20 in D minor, K466

30:30
01. I. Allegro (cadenza by L. van Beethoven) 14:28
02. II. Romanze 8:49
03. III. Rondo: Allegro assai (cadenza by A. Goldstein) 7:13

Mozart: Piano Concerto No. 21 in C major, K467 'Elvira Madigan'

27:17
04. I. Allegro maestoso (cadenza by A. Goldstein) 13:59
05. II. Andante 6:44
06. III. Allegro vivace assai (cadenza by A. Goldstein) 6:34


Fine Arts Quartet
Alon Goldstein (piano), Rachel Calin (double bass)
Recorded: 24-26 April 2014
Recording Venue: The American Academy of Arts and Letters, New York City, USA


Контейнер : FLAC (*.flac)

Тип рипа : tracks

Разрядность : 24/192

Формат : PCM

Количество каналов : 2.0

Лог проверки качества

`foobar2000 1.4.3 / Dynamic Range Meter 1.1.1
log date: 2019-05-15 20:23:25


Analyzed: Alon Goldstein, Fine Arts Quartet, Rachel Calin / Mozart: Piano Concertos Nos. 20 & 21 (Orchestra parts transcribed for string quartet and double bass by Ignaz Lachner)
DR Peak RMS Duration Track

DR13 -0.06 dB -17.21 dB 14:29 01-Piano Concerto No. 20 in D Minor, K. 466: I. Allegro
DR13 -0.12 dB -18.42 dB 8:50 02-Piano Concerto No. 20 in D Minor, K. 466: II. Romanze
DR14 -0.96 dB -18.17 dB 7:14 03-Piano Concerto No. 20 in D Minor, K. 466: III. Rondo: Allegro assai
DR14 -0.14 dB -18.25 dB 13:59 04-Piano Concerto No. 21 in C Major, K. 467 'Elvira Madigan': I. Allegro maestoso
DR14 -5.49 dB -24.05 dB 6:44 05-Piano Concerto No. 21 in C Major, K. 467 'Elvira Madigan': II. Andante

DR12 -0.13 dB -18.96 dB 6:35 06-Piano Concerto No. 21 in C Major, K. 467 'Elvira Madigan': III. Allegro vivace assai

Number of tracks: 6
Official DR value: DR13

Samplerate: 192000 Hz
Channels: 2
Bits per sample: 24
Bitrate: 4579 kbps
Codec: FLAC
================================================================================ `

Источник (релизер) : https://www.prostudiomasters.com/album/page/11420


More at ibit.to
And ibit.uno
And ibit.ws

Comments

Files

Alon Goldstein, Fine Arts Quartet - Mozart - Piano Concertos Nos. 20 & 21 (2017) [24-192]01 - Piano Concerto No. 20 in D Minor, K. 466- I. Allegro.fla 503 MB
Alon Goldstein, Fine Arts Quartet - Mozart - Piano Concertos Nos. 20 & 21 (2017) [24-192]02 - Piano Concerto No. 20 in D Minor, K. 466- II. Romanze.fl 304 MB
Alon Goldstein, Fine Arts Quartet - Mozart - Piano Concertos Nos. 20 & 21 (2017) [24-192]03 - Piano Concerto No. 20 in D Minor, K. 466- III. Rondo- Al 249 MB
Alon Goldstein, Fine Arts Quartet - Mozart - Piano Concertos Nos. 20 & 21 (2017) [24-192]04 - Piano Concerto No. 21 in C Major, K. 467 'Elvira Madigan 486 MB
Alon Goldstein, Fine Arts Quartet - Mozart - Piano Concertos Nos. 20 & 21 (2017) [24-192]05 - Piano Concerto No. 21 in C Major, K. 467 'Elvira Madigan 229 MB
Alon Goldstein, Fine Arts Quartet - Mozart - Piano Concertos Nos. 20 & 21 (2017) [24-192]06 - Piano Concerto No. 21 in C Major, K. 467 'Elvira Madigan 226 MB
Alon Goldstein, Fine Arts Quartet - Mozart - Piano Concertos Nos. 20 & 21 (2017) [24-192]booklet.pdf 3.3 MB
Alon Goldstein, Fine Arts Quartet - Mozart - Piano Concertos Nos. 20 & 21 (2017) [24-192]Cover.jpg 262 kB
Alon Goldstein, Fine Arts Quartet - Mozart - Piano Concertos Nos. 20 & 21 (2017) [24-192]folder.jpg 1.4 MB
Alon Goldstein, Fine Arts Quartet - Mozart - Piano Concertos Nos. 20 & 21 (2017) [24-192]foo_dr.txt 1.6 kB

Stream

Downloading Seeding Alon Goldstein, Fine Arts Quartet - Mozart - Piano Concertos Nos. 20 & 21 (2017) [24-192] from to 0 peers.
of
0 b/s / ↗0 b/s