• 8
  • 1
  • done
Anonymous Download
  • Alien Covenant (2017) Hybrid 1080p [Open Matte].mkv
  • 13 GB
  • yаut
  • Alien Covenant 2017 Hybrid 1080p Open Matte mkv
  • Разное (раздачи)
Warning! Use a VPN When Downloading Torrents!
Your IP Address is ,
Your Internet Provider can see when you download torrents! Hide your IP ADDRESS with a VPN
We strongly recommend hide.me VPN to hide your torrenting. It's FREE!
DOWNLOAD VPN

Description

Чужой: Завет / Alien: Covenant
Hybrid / Open Matte

image

Год выпуска : 2017

Страна : США, Великобритания, Австралия, Новая Зеландия, Канада

Жанр : ужасы, фантастика, триллер

Перевод : Полное дублированние

Субтитры : Русские (форсированные + полные 2 вида), Английские (полные, SDH, SDH-Colored)

Навигация по главам : есть

Продолжительность : 02:02:03

Описание : Во время обследования удаленной планеты, расположенной на другой стороне галактики, экипаж колониального корабля «Завет» обнаруживает, что то, что они изначально приняли за неизведанный рай, на самом деле — тёмный и опасный мир. Его единственный житель — синтетический андроид Дэвид, оставшийся в живых после обреченной экспедиционной миссии «Прометей».

Дополнительная информация :

Экспериментальный релиз, только для поклонников фильма и open matte.

Гибрид получен путем автоматического совмещения широкоэкранного (2.35:1) Blu-ray и WEB-DL Amazon (16:9) плагином AutoOverlay с целью получить версию фильма с максимальным наполнением кадра. Высота кадра по всему фильму плавающая (в зависимости от наполнения). В основном - 920 пикселей.

Сэмпл: https://yadi.sk/i/2QbYJ0-qUMMqEw

Качество : Hybrid 1080p

Формат видео : MKV

Видео кодек : H264

Аудио кодек : AC3

Видео : H264 / 13,5 Мбит/сек / 1920x1080 / 23,976 fps / High Profile 4.1

Аудио 1 : Russian AC3 / 5.1 / 48 kHz / 448 kbps / | Дубляж |

Аудио 2 : English AC3 / 5.1 / 48 kHz / 448 kbps / | Original |

Скриншоты

imageimage image image image imageimage image

Сравнение WEB-DL . . . . . Blu-ray . . . . . . . . . . . . . . . . IMAX Hybrid . . . . . . . . . . . . Open Matte Hybrid

IMAX сцены

image image image image
image image image image
image image image image
image image image image
image image image image

Основная часть фильма

image image image image
image image image image
image image image image
image image image image
image image image image
image image image image
image image image image

MediaInfo

Общее
Уникальный идентификатор : 101481264189464936593943656281741296555 (0x4C58949EE7513CDF487C605746E583AB)
Полное имя : F:DownloadsAlien Covenant (2017) Hybrid 1080p [Open Matte].mkv
Формат : Matroska
Версия формата : Version 4
Размер файла : 12,3 Гбайт
Продолжительность : 2 ч. 2 м.
Общий поток : 14,4 Мбит/сек
Дата кодирования : UTC 2019-07-05 05:30:10
Программа кодирования : mkvmerge v30.1.0 ('Forever And More') 64-bit
Библиотека кодирования : libebml v1.3.6 + libmatroska v1.4.9

Видео
Идентификатор : 1
Формат : AVC
Формат/Информация : Advanced Video Codec
Профиль формата : [email protected]
Настройки формата : CABAC / 4 Ref Frames
Параметр CABAC формата : Да
Параметр RefFrames формата : 4 кадра
Идентификатор кодека : VMPEG4/ISO/AVC
Продолжительность : 2 ч. 2 м.
Битрейт : 13,5 Мбит/сек
Ширина : 1920 пикселей
Высота : 1080 пикселей
Соотношение сторон : 16:9
Режим частоты кадров : Постоянный
Частота кадров : 23,976 (24000/1001) кадра/сек
Цветовое пространство : YUV
Субдискретизация насыщенности : 4:2:0
Битовая глубина : 8 бит
Тип развёртки : Прогрессивная
Бит/(Пиксели*Кадры) : 0.271
Размер потока : 11,5 Гбайт (94%)
Библиотека кодирования : x264 core 157 r2935 545de2f
Настройки программы : cabac=1 / ref=4 / deblock=1:-3:-3 / analyse=0x3:0x133 / me=umh / subme=11 / psy=1 / psy
rd=1.00:0.00 / mixedref=1 / merange=32 / chromame=1 / trellis=2 / 8x8dct=1 / cqm=0 / deadzone=21,11 / fastpskip=0 / chromaqpoffset=-2 / threads=6 / lookaheadthreads=1 / slicedthreads=0 / nr=0 / decimate=1 / interlaced=0 / bluraycompat=0 / constrainedintra=0 / bframes=10 / bpyramid=2 / badapt=2 / bbias=0 / direct=3 / weightb=1 / opengop=0 / weightp=2 / keyint=240 / keyintmin=23 / scenecut=40 / intrarefresh=0 / rclookahead=60 / rc=crf / mbtree=1 / crf=16.0 / qcomp=0.60 / qpmin=0 / qpmax=69 / qpstep=4 / vbvmaxrate=62500 / vbvbufsize=78125 / crfmax=0.0 / nalhrd=none / filler=0 / ipratio=1.40 / aq=1:1.00
Default : Да
Forced : Нет

Аудио #1
Идентификатор : 2
Формат : AC-3
Формат/Информация : Audio Coding 3
Коммерческое название : Dolby Digital
Идентификатор кодека : A_AC3
Продолжительность : 2 ч. 2 м.
Вид битрейта : Постоянный
Битрейт : 448 Кбит/сек
Каналы : 6 каналов
ChannelLayout : L R C LFE Ls Rs
Частота : 48,0 КГц
Частота кадров : 31,250 кадров/сек (1536 SPF)
Битовая глубина : 16 бит
Метод сжатия : С потерями
Размер потока : 391 Мбайт (3%)
Заголовок : DUB
Язык : Russian
ServiceKind/String : Complete Main
Default : Да
Forced : Нет

Аудио #2
Идентификатор : 3
Формат : AC-3
Формат/Информация : Audio Coding 3
Коммерческое название : Dolby Digital
Идентификатор кодека : A_AC3
Продолжительность : 2 ч. 2 м.
Вид битрейта : Постоянный
Битрейт : 448 Кбит/сек
Каналы : 6 каналов
ChannelLayout : L R C LFE Ls Rs
Частота : 48,0 КГц
Частота кадров : 31,250 кадров/сек (1536 SPF)
Битовая глубина : 16 бит
Метод сжатия : С потерями
Размер потока : 391 Мбайт (3%)
Язык : English
ServiceKind/String : Complete Main
Default : Нет
Forced : Нет

Текст #1
Идентификатор : 4
Формат : UTF-8
Идентификатор кодека : S_TEXT/UTF8
Идентификатор кодека/Информация : UTF-8 Plain Text
Продолжительность : 1 ч. 45 м.
Битрейт : 0 бит/сек
ElementCount : 11
Размер потока : 341 байт (0%)
Заголовок : Forced
Язык : Russian
Default : Да
Forced : Нет

Текст #2
Идентификатор : 5
Формат : UTF-8
Идентификатор кодека : S_TEXT/UTF8
Идентификатор кодека/Информация : UTF-8 Plain Text
Продолжительность : 1 ч. 54 м.
Битрейт : 69 бит/сек
ElementCount : 864
Размер потока : 58,8 Кбайт (0%)
Заголовок : Full - Matveev
Язык : Russian
Default : Нет
Forced : Нет

Текст #3
Идентификатор : 6
Формат : UTF-8
Идентификатор кодека : S_TEXT/UTF8
Идентификатор кодека/Информация : UTF-8 Plain Text
Продолжительность : 1 ч. 54 м.
Битрейт : 72 бит/сек
ElementCount : 1443
Размер потока : 60,2 Кбайт (0%)
Заголовок : Full
Язык : Russian
Default : Нет
Forced : Нет

Текст #4
Идентификатор : 7
Формат : UTF-8
Идентификатор кодека : S_TEXT/UTF8
Идентификатор кодека/Информация : UTF-8 Plain Text
Продолжительность : 1 ч. 54 м.
Битрейт : 44 бит/сек
ElementCount : 1451
Размер потока : 36,8 Кбайт (0%)
Заголовок : Full
Язык : English
Default : Нет
Forced : Нет

Текст #5
Идентификатор : 8
Формат : UTF-8
Идентификатор кодека : S_TEXT/UTF8
Идентификатор кодека/Информация : UTF-8 Plain Text
Продолжительность : 1 ч. 54 м.
Битрейт : 52 бит/сек
ElementCount : 1709
Размер потока : 44,3 Кбайт (0%)
Заголовок : Full - SDH
Язык : English
Default : Нет
Forced : Нет

Текст #6
Идентификатор : 9
Формат : UTF-8
Идентификатор кодека : S_TEXT/UTF8
Идентификатор кодека/Информация : UTF-8 Plain Text
Продолжительность : 1 ч. 54 м.
Битрейт : 86 бит/сек
ElementCount : 1755
Размер потока : 72,5 Кбайт (0%)
Заголовок : Full - SDH - Colored
Язык : English
Default : Нет
Forced : Нет

Меню
00:00:00.000 : en:Chapter 1
00:05:31.333 : en:Chapter 2
00:13:07.495 : en:Chapter 3
00:18:11.924 : en:Chapter 4
00:22:46.448 : en:Chapter 5
00:27:51.169 : en:Chapter 6
00:33:12.907 : en:Chapter 7
00:37:18.736 : en:Chapter 8
00:42:19.912 : en:Chapter 9
00:47:43.694 : en:Chapter 10
00:51:59.700 : en:Chapter 11
00:55:56.269 : en:Chapter 12
01:00:17.447 : en:Chapter 13
01:06:20.643 : en:Chapter 14
01:11:25.030 : en:Chapter 15
01:16:35.882 : en:Chapter 16
01:21:57.621 : en:Chapter 17
01:28:18.793 : en:Chapter 18
01:30:28.298 : en:Chapter 19
01:34:52.436 : en:Chapter 20
01:39:23.666 : en:Chapter 21
01:47:26.815 : en:Chapter 22
01:50:49.309 : en:Chapter 23
01:55:27.754 : en:Chapter 24


More at ibit.to
And ibit.uno
And ibit.am
And ibit.ws

Comments

5 months ago

Если будет спрос, могу сделать Локализованную версию Так же в работе сейчас Расширенная версия фильма.

5 months ago

Спасибо , за фильм ! А в планах случайно нет сделать Прометей , без зерна и без просвечивающего логотипа ? Еще раз спасибо.

5 months ago

У меня тоже вопрос про Прометея ?

Files

Alien Covenant (2017) Hybrid 1080p [Open Matte].mkv 13 GB

Stream

Downloading Seeding Alien Covenant (2017) Hybrid 1080p [Open Matte].mkv from to 0 peers.
of
0 b/s / ↗0 b/s