• 3
  • 0
  • 5,780
  • done
Sponsored Download
  • Alan Walker - Faded [FLAC]
  • 51 MB
  • 312c
  • Alan Walker Faded FLAC
  • English
  • Lossless

Description

Tracklist:

  • Alan Walker - 01. Faded.flac
  • Alan Walker - 02. Faded (Instrumental).flac

Album art:
image

Mediainfo:

Code:

__

General

Complete name                            : Alan Walker - 01. Faded.flac

Format                                   : FLAC

Format/Info                              : Free Lossless Audio Codec

File size                                : 25.9 MiB

Duration                                 : 3 min

Overall bit rate mode                    : Variable

Overall bit rate                         : 1 023 kb/s

Album                                    : Faded

Album/Performer                          : Alan Walker

Part                                     : 1

Part/Total                               : 1

Track name                               : Faded

Track name/Position                      : 1

Track name/Total                         : 2

Performer                                : Alan Walker

Genre                                    : Dance/House/Techno

Description                              : Purchased from 7digital.com

Recorded date                            : 2015

Copyright                                : (P) 2015 MER Musikk under exclusive license to Sony Music Entertainment Sweden AB

Cover                                    : Yes

Cover description                        : cover.jpg

Cover type                               : Cover (front)

Cover MIME                               : image/jpeg

Audio

Format                                   : FLAC

Format/Info                              : Free Lossless Audio Codec

Duration                                 : 3 min

Bit rate mode                            : Variable

Bit rate                                 : 1 019 kb/s

Channel(s)                               : 2 channels

Channel positions                        : Front: L R

Sampling rate                            : 44.1 kHz

Bit depth                                : 16 bits

Stream size                              : 25.8 MiB (100%)

General

Complete name                            : Alan Walker - 02. Faded (Instrumental).flac

Format                                   : FLAC

Format/Info                              : Free Lossless Audio Codec

File size                                : 24.6 MiB

Duration                                 : 3 min

Overall bit rate mode                    : Variable

Overall bit rate                         : 958 kb/s

Album                                    : Faded

Album/Performer                          : Alan Walker

Part                                     : 1

Part/Total                               : 1

Track name                               : Faded (Instrumental)

Track name/Position                      : 2

Track name/Total                         : 2

Performer                                : Alan Walker

Genre                                    : Dance/House/Techno

Description                              : Purchased from 7digital.com

Recorded date                            : 2015

Copyright                                : (P) 2015 MER Musikk under exclusive license to Sony Music Entertainment Sweden AB

Cover                                    : Yes

Cover description                        : cover.jpg

Cover type                               : Cover (front)

Cover MIME                               : image/jpeg

Audio

Format                                   : FLAC

Format/Info                              : Free Lossless Audio Codec

Duration                                 : 3 min

Bit rate mode                            : Variable

Bit rate                                 : 955 kb/s

Channel(s)                               : 2 channels

Channel positions                        : Front: L R

Sampling rate                            : 44.1 kHz

Bit depth                                : 16 bits

Stream size                              : 24.6 MiB (100%)

__

Links:
iTunes: [https://itunes.apple.com/us/album/faded-single/id1058093269]https://itunes.apple.com/us/album/faded-single/id1058093269]https://itunes.apple.com/us/album/faded-single/id1058093269](https://itunes.apple.com/us/album/faded-single/id1058093269)
Spotify: [https://open.spotify.com/album/4pvMZr2Kfe1typbTqMHa8z]https://open.spotify.com/album/4pvMZr2Kfe1typbTqMHa8z]https://open.spotify.com/album/4pvMZr2Kfe1typbTqMHa8z](https://open.spotify.com/album/4pvMZr2Kfe1typbTqMHa8z)
MusicBrainz: [http://musicbrainz.org/release/0117f2d2-8495-46e2-9081-3aa533e81078]http://musicbrainz.org/release/0117f2d2-8495-46e2-9081-3aa533e81078]http://musicbrainz.org/release/0117f2d2-8495-46e2-9081-3aa533e81078](https://musicbrainz.org/release/0117f2d2-8495-46e2-9081-3aa533e81078)
Wikipedia: https://en.wikipedia.org/wiki/Faded(AlanWalker_song)
Enjoy!


More at ibit.to
And ibit.uno
And ibit.ws

Comments

Files

Alan Walker - 01. Faded.flac 27 MB
Alan Walker - 02. Faded (Instrumental).flac 26 MB
Alan Walker Faded [FLAC] -
Alan Walker 01. Faded.flac 26 MB
Alan Walker 02. Faded (Instrumental).flac 25 MB

Stream

Downloading Seeding Alan Walker - Faded [FLAC] from to 0 peers.
of
0 b/s / ↗0 b/s