• 0
  • 0
  • done
Anonymous Downloadondemand_video
  • Against the Wild 2 Survive the Serengeti 2016 720p BluRay x264 Dual Audio [Hindi DD 2.0 - English 2.0] ESub [MW]
  • 1.2 GB
  • moviefreak
  • Wild Survive Serengeti 2016 720p BluRay x264 Dual Audio Hindi English ESub
  • Hindi
  • Dubs/Dual Audio
Warning! Use a VPN When Downloading Torrents!
Your IP Address is ,
Your Internet Provider can see when you download torrents! Hide your IP ADDRESS with a VPN
We strongly recommend Trust.Zone VPN to hide your torrenting. It's FREE!
DOWNLOAD VPN

Description

image

**

General

Format                                   : Matroska

Format version                           : Version 4

File size                                : 1.16 GiB

Duration                                 : 1 h 31 min

Overall bit rate                         : 1 823 kb/s

Video

ID                                       : 1

Format                                   : AVC

Format/Info                              : Advanced Video Codec

Format profile                           : [email protected]

Format settings                          : CABAC / 4 Ref Frames

Format settings, CABAC                   : Yes

Format settings, Reference frames        : 4 frames

Codec ID                                 : V_MPEG4/ISO/AVC

Duration                                 : 1 h 31 min

Bit rate                                 : 1 500 kb/s

Width                                    : 1 280 pixels

Height                                   : 720 pixels

Display aspect ratio                     : 16:9

Frame rate mode                          : Constant

Frame rate                               : 23.976 (23976/1000) FPS

Color space                              : YUV

Chroma subsampling                       : 4:2:0

Bit depth                                : 8 bits

Scan type                                : Progressive

Bits/(Pixel*Frame)                       : 0.068

Stream size                              : 981 MiB (82%)

Writing library                          : x264 core 152 r2851M ba24899

Audio #1

ID                                       : 2

Format                                   : AC-3

Format/Info                              : Audio Coding 3

Commercial name                          : Dolby Digital

Codec ID                                 : A_AC3

Duration                                 : 1 h 31 min

Bit rate mode                            : Constant

Bit rate                                 : 192 kb/s

Channel(s)                               : 2 channels

Channel layout                           : L R

Sampling rate                            : 48.0 kHz

Frame rate                               : 31.250 FPS (1536 SPF)

Bit depth                                : 16 bits

Compression mode                         : Lossy

Stream size                              : 126 MiB (11%)

Language                                 : Hindi

Service kind                             : Complete Main

Default                                  : Yes

Forced                                   : Yes

Audio #2

ID                                       : 4

Format                                   : AAC LC

Codec ID                                 : A_AAC-2

Duration                                 : 1 h 31 min

Bit rate                                 : 128 kb/s

Channel(s)                               : 2 channels

Channel layout                           : L R

Sampling rate                            : 48.0 kHz

Frame rate                               : 46.875 FPS (1024 SPF)

Compression mode                         : Lossy

Stream size                              : 83.7 MiB (7%)

Language                                 : English

Default                                  : No

Forced                                   : No

Text

ID                                       : 3

Format                                   : UTF-8

Codec ID                                 : S_TEXT/UTF8

Codec ID/Info                            : UTF-8 Plain Text

Duration                                 : 1 h 29 min

Bit rate                                 : 48 b/s

Count of elements                        : 844

Stream size                              : 31.7 KiB (0%)

Language                                 : English

Default                                  : Yes

Forced                                   : No
**

Click To View Image

https://pichub.site/image/yGyWb

https://pichub.site/image/yGwoy

https://pichub.site/image/yGhV0

https://pichub.site/image/yGiUV

https://pichub.site/image/yGt1T

https://pichub.site/image/yG8RN


More at ibit.to
And ibit.uno
And ibit.ws

Comments

Files

Against the Wild 2 Survive the Serengeti 2016 720p BluRay x264 Dual Audio [Hindi DD 2.0 - English 2.0] ESub [MW].mkv 1.2 GB

Stream

Downloading Seeding Against the Wild 2 Survive the Serengeti 2016 720p BluRay x264 Dual Audio [Hindi DD 2.0 - English 2.0] ESub [MW] from to 0 peers.
of
0 b/s / ↗0 b/s