• 2
  • 18
Sponsored Download
  • AC_DC - Live At River Plate [2011] 1080p BDRip x265 PCM 5.1 Kira [SEV]
  • 13 GB
  • d0ct0rlew
  • Live River Plate 2011 1080p BDRip x265 PCM Kira SEV
  • English
  • Others


Description

imageimage

imageimage

Screenshot's

imageimageimageimage

** Media Information **

General

Unique ID                   : 223267350914375935423074712284561301276 (0xA7F7BA48C71D451269AFD123A53E5F1C)

Complete name               : AC_DC - Live At River Plate [2011] 1080p BDRip x265 PCM 5.1 Kira [SEV].mkv

Format                      : Matroska

Format version              : Version 4

File size                   : 11.6 GiB

Duration                    : 1 h 51 min

Overall bit rate            : 14.8 Mb/s

Movie name                  : | AC/DC : Live At River Plate [2011] | 1080p | BDRip | x265 | PCM 5.1 @ 6912 Kbps | PCM 2.0 @ 2304 Kbps | Kira [SEV] |

Encoded date                : UTC 2019-07-08 10:43:54

Writing application         : mkvmerge v35.0.0 ('All The Love In The World') 64-bit

Writing library             : libebml v1.3.9 + libmatroska v1.5.2

Video

ID                          : 1

Format                      : HEVC

Format/Info                 : High Efficiency Video Coding

Format profile              : Main [email protected]@Main

Codec ID                    : V_MPEGH/ISO/HEVC

Duration                    : 1 h 51 min

Bit rate                    : 4 999 kb/s

Width                       : 1 920 pixels

Height                      : 1 080 pixels

Display aspect ratio        : 16:9

Frame rate mode             : Constant

Frame rate                  : 23.976 (24000/1001) FPS

Color space                 : YUV

Chroma subsampling          : 4:2:0

Bit depth                   : 10 bits

Bits/(Pixel*Frame)          : 0.101

Stream size                 : 3.90 GiB (34%)

Title                       : | AC/DC : Live At River Plate [2011] | 1080p | BDRip | x265 | PCM 5.1 @ 6912 Kbps | PCM 2.0 @ 2304 Kbps | Kira [SEV] |

Writing library             : x265 3.1_RC1+3-3bdf06e3c628:[Windows][MSVC 1921][64 bit] 10bit

Encoding settings           : cpuid=1111039 / frame-threads=2 / numa-pools=4 / wpp / no-pmode / no-pme / no-psnr / no-ssim / log-level=2 / input-csp=1 / input-res=1920x1080 / interlace=0 / total-frames=160585 / level-idc=0 / high-tier=1 / uhd-bd=0 / ref=5 / no-allow-non-conformance / no-repeat-headers / annexb / no-aud / no-hrd / info / hash=0 / no-temporal-layers / open-gop / min-keyint=23 / keyint=250 / gop-lookahead=0 / bframes=8 / b-adapt=2 / b-pyramid / bframe-bias=0 / rc-lookahead=100 / lookahead-slices=0 / scenecut=40 / radl=0 / no-splice / no-intra-refresh / ctu=64 / min-cu-size=8 / rect / amp / max-tu-size=32 / tu-inter-depth=3 / tu-intra-depth=3 / limit-tu=4 / rdoq-level=2 / dynamic-rd=0.00 / no-ssim-rd / signhide / no-tskip / nr-intra=0 / nr-inter=0 / no-constrained-intra / no-strong-intra-smoothing / max-merge=4 / limit-refs=1 / limit-modes / me=3 / subme=7 / merange=92 / temporal-mvp / weightp / weightb / no-analyze-src-pics / deblock=0:0 / sao / no-sao-non-deblock / rd=6 / no-early-skip / rskip / no-fast-intra / no-tskip-fast / no-cu-lossless / b-intra / no-splitrd-skip / rdpenalty=0 / psy-rd=1.50 / psy-rdoq=1.00 / no-rd-refine / no-lossless / cbqpoffs=0 / crqpoffs=0 / rc=abr / bitrate=5000 / qcomp=0.60 / qpstep=4 / stats-write=0 / stats-read=2 / cplxblur=20.0 / qblur=0.5 / ipratio=1.40 / pbratio=1.30 / aq-mode=3 / aq-strength=1.50 / cutree / zone-count=0 / no-strict-cbr / qg-size=32 / no-rc-grain / qpmax=69 / qpmin=0 / no-const-vbv / sar=0 / overscan=0 / videoformat=5 / range=0 / colorprim=2 / transfer=2 / colormatrix=2 / chromaloc=0 / display-window=0cll=0,0 / min-luma=0 / max-luma=1023 / log2-max-poc-lsb=8 / vui-timing-info / vui-hrd-info / slices=1 / no-opt-qp-pps / no-opt-ref-list-length-pps / no-multi-pass-opt-rps / scenecut-bias=0.05 / no-opt-cu-delta-qp / no-aq-motion / no-hdr / no-hdr-opt / no-dhdr10-opt / no-idr-recovery-sei / analysis-reuse-level=5 / scale-factor=0 / refine-intra=0 / refine-inter=0 / refine-mv=0 / refine-ctu-distortion=0 / no-limit-sao / ctu-info=0 / no-lowpass-dct / refine-analysis-type=0 / copy-pic=1 / max-ausize-factor=1.0 / no-dynamic-refine / no-single-sei / no-hevc-aq / no-svt / no-field / qp-adaptation-range=1.00

Language                    : English

Default                     : Yes

Forced                      : No

Audio #1

ID                          : 2

Format                      : PCM

Format settings             : Little / Signed

Codec ID                    : A_PCM/INT/LIT

Duration                    : 1 h 51 min

Bit rate mode               : Constant

Bit rate                    : 6 912 kb/s

Channel(s)                  : 6 channels

Sampling rate               : 48.0 kHz

Frame rate                  : 200.000 FPS (240 SPF)

Bit depth                   : 24 bits

Stream size                 : 5.38 GiB (46%)

Title                       : English Org BD PCM DD_5.1 @ 6912 Kbps

Language                    : English

Default                     : Yes

Forced                      : No

Audio #2

ID                          : 3

Format                      : PCM

Format settings             : Little / Signed

Codec ID                    : A_PCM/INT/LIT

Duration                    : 1 h 51 min

Bit rate mode               : Constant

Bit rate                    : 2 304 kb/s

Channel(s)                  : 2 channels

Sampling rate               : 48.0 kHz

Frame rate                  : 200.000 FPS (240 SPF)

Bit depth                   : 24 bits

Stream size                 : 1.79 GiB (15%)

Title                       : English Org BD PCM DD_2.0 @ 2304 Kbps

Language                    : English

Default                     : No

Forced                      : No

Audio #3

ID                          : 4

Format                      : AC-3

Format/Info                 : Audio Coding 3

Commercial name             : Dolby Digital

Codec ID                    : A_AC3

Duration                    : 1 h 51 min

Bit rate mode               : Constant

Bit rate                    : 640 kb/s

Channel(s)                  : 6 channels

Channel layout              : L R C LFE Ls Rs

Sampling rate               : 48.0 kHz

Frame rate                  : 31.250 FPS (1536 SPF)

Bit depth                   : 16 bits

Compression mode            : Lossy

Stream size                 : 510 MiB (4%)

Title                       : English Org BD DD_5.1 @ 640 Kbps

Language                    : English

Service kind                : Complete Main

Default                     : No

Forced                      : No

Menu

00:00:00.000                : en:Chapter 01 : Intro

00:01:13.490                : en:Chapter 02 : AC/DC : Rock n Roll Train

00:05:43.468                : en:Chapter 03 : AC/DC : Hell Ain't a Bad Place to Be

00:10:00.016                : en:Chapter 04 : AC/DC : Back in Black

00:14:10.182                : en:Chapter 05 : AC/DC : Big Jack

00:18:12.174                : en:Chapter 06 : AC/DC : Dirty Deeds Done Dirt Cheap

00:22:58.126                : en:Chapter 07 : AC/DC : Shot Down in Flames

00:26:29.045                : en:Chapter 08 : AC/DC : Thunderstruck

00:32:05.840                : en:Chapter 09 : AC/DC : Black Ice

00:35:39.428                : en:Chapter 10 : AC/DC : The Jack

00:46:24.615                : en:Chapter 11 : AC/DC : Hells Bells

00:52:00.659                : en:Chapter 12 : AC/DC : Shoot to Thrill

00:57:52.886                : en:Chapter 13 : AC/DC : War Machine

01:01:15.004                : en:Chapter 14 : AC/DC : Dog Eat Dog

01:05:52.740                : en:Chapter 15 : AC/DC : You Shook Me All Night Long

01:09:44.096                : en:Chapter 16 : AC/DC : T.N.T.

01:13:40.791                : en:Chapter 17 : AC/DC : Whole Lotta Rosie

01:19:21.339                : en:Chapter 18 : AC/DC : Let There Be Rock

01:37:05.152                : en:Chapter 19 : AC/DC : Highway to Hell

01:41:48.185                : en:Chapter 20 : AC/DC : For Those About to Rock (We Salute You)

** Source Media Information **

General

Unique ID                   : 124088412999403327490071809801510131761 (0x5D5A8F1CE5FB86CE72320E30DD2F1831)

Complete name               : ACDC-Live.At.River.Plate.2011.x264.Blu-ray.1080p-HDClub.mkv

Format                      : Matroska

Format version              : Version 4

File size                   : 28.5 GiB

Duration                    : 1 h 51 min

Overall bit rate mode       : Variable

Overall bit rate            : 36.5 Mb/s

Encoded date                : UTC 2019-05-30 09:16:55

Writing application         : mkvmerge v34.0.0 ('Sight and Seen') 64-bit

Writing library             : libebml v1.3.7 + libmatroska v1.5.0

Video

ID                          : 1

Format                      : AVC

Format/Info                 : Advanced Video Codec

Format profile              : [email protected]

Format settings             : CABAC / 4 Ref Frames

Format settings, CABAC      : Yes

Format settings, ReFrames   : 4 frames

Codec ID                    : V_MPEG4/ISO/AVC

Duration                    : 1 h 51 min

Bit rate mode               : Variable

Bit rate                    : 26.7 Mb/s

Maximum bit rate            : 34.0 Mb/s

Width                       : 1 920 pixels

Height                      : 1 080 pixels

Display aspect ratio        : 16:9

Frame rate mode             : Constant

Frame rate                  : 23.976 (24000/1001) FPS

Standard                    : NTSC

Color space                 : YUV

Chroma subsampling          : 4:2:0

Bit depth                   : 8 bits

Scan type                   : Progressive

Bits/(Pixel*Frame)          : 0.536

Stream size                 : 20.8 GiB (73%)

Default                     : Yes

Forced                      : No

Color range                 : Limited

Color primaries             : BT.709

Transfer characteristics    : BT.709

Matrix coefficients         : BT.709

Audio #1

ID                          : 2

Format                      : PCM

Format settings             : Little / Signed

Codec ID                    : A_PCM/INT/LIT

Duration                    : 1 h 51 min

Bit rate mode               : Constant

Bit rate                    : 6 912 kb/s

Channel(s)                  : 6 channels

Sampling rate               : 48.0 kHz

Frame rate                  : 200.000 FPS (240 SPF)

Bit depth                   : 24 bits

Stream size                 : 5.38 GiB (19%)

Language                    : English

Default                     : Yes

Forced                      : No

Audio #2

ID                          : 3

Format                      : PCM

Format settings             : Little / Signed

Codec ID                    : A_PCM/INT/LIT

Duration                    : 1 h 51 min

Bit rate mode               : Constant

Bit rate                    : 2 304 kb/s

Channel(s)                  : 2 channels

Sampling rate               : 48.0 kHz

Frame rate                  : 200.000 FPS (240 SPF)

Bit depth                   : 24 bits

Stream size                 : 1.79 GiB (6%)

Language                    : English

Default                     : No

Forced                      : No

Audio #3

ID                          : 4

Format                      : AC-3

Format/Info                 : Audio Coding 3

Commercial name             : Dolby Digital

Codec ID                    : A_AC3

Duration                    : 1 h 51 min

Bit rate mode               : Constant

Bit rate                    : 640 kb/s

Channel(s)                  : 6 channels

Channel layout              : L R C LFE Ls Rs

Sampling rate               : 48.0 kHz

Frame rate                  : 31.250 FPS (1536 SPF)

Bit depth                   : 16 bits

Compression mode            : Lossy

Stream size                 : 510 MiB (2%)

Language                    : English

Service kind                : Complete Main

Default                     : No

Forced                      : No

Menu

00:00:00.000                : :Chapter 01

00:01:13.490                : :Chapter 02

00:05:43.468                : :Chapter 03

00:10:00.016                : :Chapter 04

00:14:10.182                : :Chapter 05

00:18:12.174                : :Chapter 06

00:22:58.126                : :Chapter 07

00:26:29.045                : :Chapter 08

00:32:05.840                : :Chapter 09

00:35:39.428                : :Chapter 10

00:46:24.615                : :Chapter 11

00:52:00.659                : :Chapter 12

00:57:52.886                : :Chapter 13

01:01:15.004                : :Chapter 14

01:05:52.740                : :Chapter 15

01:09:44.096                : :Chapter 16

01:13:40.791                : :Chapter 17

01:19:21.339                : :Chapter 18

01:37:05.152                : :Chapter 19

01:41:48.185                : :Chapter 20

We have no issue with individuals posting or re-uploading our torrents on a platform we aren't on. However, if this is something you'd like to do, please do so in a 'as-is' format. We ask that you do not create a new torrent, include all descriptions you see above including the SEV logo, tags, notes and screenshots. If you'd like to become a permanent poster on a website we don't post to, feel free to get in contact with a Sublime Encoded Video member.

**_We are recruiting/training new members for SEV & seedbox providers as well as people to help out with subtitles.

As you already know, we deliver quality, so you know the standard.

If you're interested, feel free to contact any of the team members._**


More at ibit.to
And ibit.uno
And ibit.ws

Comments

Files

AC_DC - Live At River Plate [2011] 1080p BDRip x265 PCM 5.1 Kira [SEV].mkv 12 GB
Extras/AC_DC - Tour Animation.mkv 170 MB
Extras/The Fan, The Roadie, The Guitar Tech & The Meat.mkv 1.3 GB

Stream

Downloading Seeding AC_DC - Live At River Plate [2011] 1080p BDRip x265 PCM 5.1 Kira [SEV] from to 0 peers.
of
0 b/s / ↗0 b/s