• 0
  • 0
  • done
Anonymous Download
  • ABBA - Live at the Wembley Arena.mkv
  • 817 MB
  • genik07
  • ABBA Live Wembley Arena mkv
  • Видео, DVD Video, HD Video (по
Warning! Use a VPN When Downloading Torrents!
Your IP Address is ,
Your Internet Provider can see when you download torrents! Hide your IP ADDRESS with a VPN
We strongly recommend hide.me VPN to hide your torrenting. It's FREE!
DOWNLOAD VPN

Description

ABBA - Live at the Wembley Arena (10.11.1979)

image

Страна : Sweden

Жанр : Pop Disco

Продолжительность : 00:51:29

Год выпуска : 1979

Описание :
Фильм - концерт ABBA - Live at the Wembley Arena (10.11.1979)

Источник : собственный рип

Качество : SATRip

Контейнер : MKV

Видео кодек : H.264

Аудио кодек : AAC

Видео : MPEG4 Video (H264) 720x540 2000 kbps 25 fps

Аудио : AАС 112 kbps 44kHz 2ch

Треклист

Waterloo
Eagle
Take A Chance On Me
Voulez-vous
Chiquitita
I Have A Dream
Gimmie ! Gimmie ! Gimmie ! (A man After Midnight)
Knowing Me, Knowing You
Summer Night City
Dancing Queen
Does Your Mother Know
Hole In Your Soul

MediaInfo:

Format : Matroska
Format version : Version 4 / Version 2
File size : 963 MiB
Duration : 51 min 29 s
Overall bit rate mode : Variable
Overall bit rate : 2 614 kb/s
Encoded date : UTC 2019-05-08 20:33:53
Writing application : mkvmerge v32.0.0 ('Astral Progressions') 32-bit
Writing library : libebml v1.3.7 + libmatroska v1.5.0

Video
ID : 1
Format : AVC
Format/Info : Advanced Video Codec
Format profile : [email protected]
Format settings : CABAC / 3 Ref Frames
Format settings, CABAC : Yes
Format settings, ReFrames : 3 frames
Codec ID : VMPEG4/ISO/AVC
Duration : 51 min 29 s
Bit rate mode : Variable
Bit rate : 2 500 kb/s
Maximum bit rate : 14.0 Mb/s
Width : 720 pixels
Height : 540 pixels
Display aspect ratio : 4:3
Frame rate mode : Constant
Frame rate : 25.000 FPS
Color space : YUV
Chroma subsampling : 4:2:0
Bit depth : 8 bits
Scan type : Progressive
Bits/(Pixel*Frame) : 0.257
Stream size : 921 MiB (96%)
Writing library : x264 core 155 r2901 7d0ff22
Encoding settings : cabac=1 / ref=3 / deblock=1:0:0 / analyse=0x3:0x113 / me=hex / subme=7 / psy=1 / psy
rd=1.00:0.00 / mixedref=1 / merange=16 / chromame=1 / trellis=1 / 8x8dct=1 / cqm=0 / deadzone=21,11 / fastpskip=1 / chromaqpoffset=-2 / threads=17 / lookaheadthreads=2 / slicedthreads=0 / slices=4 / nr=0 / decimate=1 / interlaced=0 / bluraycompat=1 / constrainedintra=0 / bframes=3 / bpyramid=1 / badapt=1 / bbias=0 / direct=1 / weightb=1 / opengop=1 / weightp=1 / keyint=250 / keyintmin=1 / scenecut=40 / intrarefresh=0 / rclookahead=40 / rc=2pass / mbtree=1 / bitrate=2500 / ratetol=1.0 / qcomp=0.60 / qpmin=0 / qpmax=69 / qpstep=4 / cplxblur=20.0 / qblur=0.5 / vbvmaxrate=14000 / vbvbufsize=14000 / nalhrd=vbr / filler=0 / ip_ratio=1.40 / aq=1:1.00
Default : Yes
Forced : No
Color range : Limited
Color primaries : BT.709
Transfer characteristics : BT.709
Matrix coefficients : BT.709

Audio
ID : 2
Format : AAC LC
Format/Info : Advanced Audio Codec Low Complexity
Codec ID : A_AAC-2
Duration : 51 min 29 s
Bit rate : 112 kb/s
Channel(s) : 2 channels
Channel layout : L R
Sampling rate : 44.1 kHz
Frame rate : 43.066 FPS (1024 SPF)
Compression mode : Lossy
Stream size : 41.3 MiB (4%)
Default : Yes
Forced : No

Скриншоты

image image image image image


More at ibit.to
And ibit.uno
And ibit.am
And ibit.ws

Comments

Files

ABBA - Live at the Wembley Arena.mkv 817 MB

Stream

Downloading Seeding ABBA - Live at the Wembley Arena.mkv from to 0 peers.
of
0 b/s / ↗0 b/s