• 0
  • 0
  • 34
Anonymous Downloadondemand_video
  • A.Thousand.Words.2012.1080p.BluRay.H264.AAC-RARBG
  • 1.7 GB
  • pinkihacks
  • Thousand Words 2012 1080p BluRay H264 RARBG
  • English
  • HD
Warning! Use a VPN When Downloading Torrents!
Your IP Address is ,
Your Internet Provider can see when you download torrents! Hide your IP ADDRESS with a VPN
We strongly recommend hide.me VPN to hide your torrenting. It's FREE!
DOWNLOAD VPN
61%

A Thousand Words (2012)

  • Drama Comedy
  • Jack McCall is a fast-talking literary agent, who can close any deal, any time, any way. He has set his sights on New Age guru Dr. Sinja (Cliff Curtis) for his own selfish purposes. But Dr. Sinja is on to him, and Jack’s life comes unglued after a magical Bodhi tree mysteriously appears in his backyard. With every word Jack speaks, a leaf falls from the tree and he realizes that when the last leaf falls, both he and the tree are toast. Words have never failed Jack McCall, but now he’s got to stop talking and conjure up some outrageous ways to communicate or he’s a goner.

    expand_more
    English
  • $40,000,000
  • Description

    Jack McCall| played by Eddie Murphy| finds an unusual tree in his yard after an encounter with a spiritual guru. After discovering that with each word he speaks| aleaf drops off of the tree| Jack refuses to speak at all| as doing so will keep the tree| and him| alive. However| his work| marriage| and friendships are allaffected by his choice. Can Jack figure out an alternative method of survival? Or will he simply have to live the rest of his life to the fullest?

    http://imdb.com/title/tt0763831/

    http://www.imdb.com/title/tt0763831/

    image

    image

    image

    image

    image

    MediaInfo:

    Video

    ID                                       : 1

    Format                                   : AVC

    Format/Info                              : Advanced Video Codec

    Format profile                           : [email protected]

    Format settings, CABAC                   : Yes

    Format settings, ReFrames                : 4 frames

    Codec ID                                 : avc1

    Codec ID/Info                            : Advanced Video Coding

    Duration                                 : 1h 31mn

    Bit rate                                 : 2 500 Kbps

    Width                                    : 1 920 pixels

    Height                                   : 800 pixels

    Display aspect ratio                     : 2.40:1

    Frame rate mode                          : Constant

    Frame rate                               : 23.976 fps

    Color space                              : YUV

    Chroma subsampling                       : 4:2:0

    Bit depth                                : 8 bits

    Scan type                                : Progressive

    Bits/(Pixel*Frame)                       : 0.068

    Stream size                              : 1.59 GiB (92%)

    Writing library                          : x264 core 142 r2491M 24e4fed

    Encoding settings                        : cabac=1 / ref=4 / deblock=1:-1:-1 / analyse=0x3:0x113 / me=umh / subme=9 / psy=1 / psyrd=1.00:0.15 / mixedref=1 / merange=24 / chromame=1 / trellis=2 / 8x8dct=1 / cqm=0 / deadzone=21,11 / fastpskip=1 / chromaqpoffset=-3 / threads=32 / lookaheadthreads=4 / slicedthreads=0 / nr=0 / decimate=1 / interlaced=0 / bluraycompat=0 / constrainedintra=0 / bframes=3 / bpyramid=2 / badapt=1 / bbias=0 / direct=1 / weightb=1 / opengop=0 / weightp=2 / keyint=250 / keyintmin=25 / scenecut=40 / intrarefresh=0 / rclookahead=50 / rc=2pass / mbtree=1 / bitrate=2500 / ratetol=1.0 / qcomp=0.60 / qpmin=0 / qpmax=69 / qpstep=4 / cplxblur=20.0 / qblur=0.5 / vbvmaxrate=31250 / vbvbufsize=31250 / nalhrd=none / filler=0 / ipratio=1.40 / aq=3:1.00

    Encoded date                             : UTC 1904-01-01 00:00:00

    Tagged date                              : UTC 1904-01-01 00:00:00

    Audio

    ID                                       : 2

    Format                                   : AAC

    Format/Info                              : Advanced Audio Codec

    Format profile                           : LC

    Codec ID                                 : 40

    Duration                                 : 1h 31mn

    Bit rate mode                            : Constant

    Bit rate                                 : 224 Kbps

    Channel(s)                               : 2 channels

    Channel(s)_Original                      : 6 channels

    Channel positions                        : Front: L C R, Side: L R, LFE

    Sampling rate                            : 48.0 KHz

    Compression mode                         : Lossy

    Stream size                              : 147 MiB (8%)

    Language                                 : English

    Encoded date                             : UTC 1904-01-01 00:00:00

    Tagged date                              : UTC 1904-01-01 00:00:00

    Menu #1

    ID                                       : 3

    Codec ID                                 : text

    Duration                                 : 1h 31mn

    Language                                 : English

    Encoded date                             : UTC 1904-01-01 00:00:00

    Tagged date                              : UTC 1904-01-01 00:00:00

    Bit rate mode                            : CBR

    00:00:00.000                             : 00:00:00.000

    00:07:33.913                             : 00:07:33.870

    00:13:04.326                             : 00:13:04.283

    00:21:34.670                             : 00:21:34.627

    00:28:14.110                             : 00:28:14.067

    00:34:47.628                             : 00:34:47.585

    00:41:34.827                             : 00:41:34.784

    00:46:32.166                             : 00:46:32.123

    00:53:28.748                             : 00:53:28.705

    01:00:09.274                             : 01:00:09.231

    01:09:17.488                             : 01:09:17.445

    01:14:51.905                             : 01:14:51.862

    01:21:50.949                             : 01:21:50.906

    01:26:46.077                             : 01:26:46.034

    Menu #2

    00:00:00.043                             : 00:00:00.000

    00:07:33.913                             : 00:07:33.870

    00:13:04.326                             : 00:13:04.283

    00:21:34.670                             : 00:21:34.627

    00:28:14.110                             : 00:28:14.067

    00:34:47.628                             : 00:34:47.585

    00:41:34.827                             : 00:41:34.784

    00:46:32.166                             : 00:46:32.123

    00:53:28.748                             : 00:53:28.705

    01:00:09.274                             : 01:00:09.231

    01:09:17.488                             : 01:09:17.445

    01:14:51.905                             : 01:14:51.862

    01:21:50.949                             : 01:21:50.906

    01:26:46.077                             : 01:26:46.034


    More at ibit.to
    And ibit.uno
    And ibit.am
    And ibit.ws

    Reviews

    Comments

    Files

    A.Thousand.Words.2012.1080p.BluRay.H264.AAC-RARBG.mp4 1.7 GB
    A.Thousand.Words.2012.1080p.BluRay.H264.AAC-RARBG.nfo 5.8 kB
    RARBG.COM.mp4 -
    RARBG.COM.txt -
    Subs/English.srt 92 kB
    English.srt 91 kB

    Stream

    Downloading Seeding A.Thousand.Words.2012.1080p.BluRay.H264.AAC-RARBG from to 0 peers.
    of
    0 b/s / ↗0 b/s