• 0
  • 0
  • 1,151
Sponsored Downloadondemand_video
73%

A Quiet Place (2018)

  • Drama Horror Thriller Science Fiction
  • A family is forced to live in silence while hiding from creatures that hunt by sound.

    expand_more
    English
  • $17,000,000
  • Description

    Quote:

    __ **

    _/! If you do not have a hdr monitor. Do this to reproduce right colors.

    Download madVR (www.madvr.com/).

    Config: Unzip madVR -> copy madVR folder to C:Program Files -> Run as administrator install.bat -> OK.

    Download Media Player Classic - BE (https://sourceforge.net/projects/mpcbe/).

    Config: MPC-BE -> View -> Options -> Video -> Video Renderer -> Select madVR -> OK.

    /! Original 4K releases with much noise, most are old movies. With much noise more bitrate is needed to maintain the quality and final file size are bigger. Releases with 60fps are bigger too._ **


    __


    ** Release info: **


    **>Encoded by: [WMAN-LorD]

    HDR working!

    Subtitles.

    Chapters.

    Cover.

    SSIM:
    PSNR:
    Source: Blu-ray Original 4k HDR

    **

    image
    image
    image
    image

    Code:

    __

    General

    Unique ID : 223629606626207208151259523105104828776 (0xA83D7EDEAD8AB1EF99D3AFBA37C39968)

    Complete name : A.Quiet.Place.2018.2160p.UHD.HDR.BluRay.(x265 10bit DD5.1).[WMAN-LorD].mkv

    Format : Matroska

    Format version : Version 4 / Version 2

    File size : 3.60 GiB

    Duration : 1 h 30 min

    Overall bit rate : 5 718 kb/s

    Encoded date : UTC 2018-07-08 19:10:35

    Writing application : mkvmerge v20.0.0 ('I Am The Sun') 64-bit

    Writing library : libebml v1.3.5 + libmatroska v1.4.8

    Cover : Yes

    Attachments : cover.jpg

    Video

    ID : 1

    Format : HEVC

    Format/Info : High Efficiency Video Coding

    Format profile : Main [email protected]@Main

    Codec ID : V_MPEGH/ISO/HEVC

    Duration : 1 h 30 min

    Bit rate : 5 051 kb/s

    Width : 3 840 pixels

    Height : 2 160 pixels

    Display aspect ratio : 16:9

    Frame rate mode : Constant

    Frame rate : 23.976 (24000/1001) FPS

    Color space : YUV

    Chroma subsampling : 4:2:0

    Bit depth : 10 bits

    Bits/(Pixel*Frame) : 0.025

    Stream size : 3.18 GiB (88%)

    Title : [WMAN-LorD]

    Language : English

    Default : Yes

    Forced : No

    Color range : Limited

    Color primaries : BT.2020

    Transfer characteristics : PQ

    Matrix coefficients : BT.2020 non-constant

    Audio

    ID : 2

    Format : AC-3

    Format/Info : Audio Coding 3

    Format settings, Endianness : Big

    Codec ID : A_AC3

    Duration : 1 h 30 min

    Bit rate mode : Constant

    Bit rate : 640 kb/s

    Channel(s) : 6 channels

    Channel positions : Front: L C R, Side: L R, LFE

    Sampling rate : 48.0 kHz

    Frame rate : 31.250 FPS (1536 SPF)

    Bit depth : 16 bits

    Compression mode : Lossy

    Stream size : 413 MiB (11%)

    Title : Compatibility Track / Dolby Digital Audio / 5.1-EX / 48 kHz / 640 kbps

    Language : English

    Service kind : Complete Main

    Default : No

    Forced : No

    Text #1

    ID : 3

    Format : PGS

    Muxing mode : zlib

    Codec ID : S_HDMV/PGS

    Codec ID/Info : Picture based subtitle format used on BDs/HD-DVDs

    Duration : 1 h 29 min

    Bit rate : 1 742 b/s

    Count of elements : 336

    Stream size : 1.12 MiB (0%)

    Title : Portuguese Brazil

    Language : Portuguese

    Default : Yes

    Forced : No

    Text #2

    ID : 4

    Format : PGS

    Muxing mode : zlib

    Codec ID : S_HDMV/PGS

    Codec ID/Info : Picture based subtitle format used on BDs/HD-DVDs

    Duration : 1 h 11 min

    Bit rate : 1 604 b/s

    Count of elements : 228

    Stream size : 844 KiB (0%)

    Title : forced for foreign parts

    Language : English

    Default : No

    Forced : No

    Text #3

    ID : 5

    Format : PGS

    Muxing mode : zlib

    Codec ID : S_HDMV/PGS

    Codec ID/Info : Picture based subtitle format used on BDs/HD-DVDs

    Duration : 1 h 11 min

    Bit rate : 1 932 b/s

    Count of elements : 302

    Stream size : 1 016 KiB (0%)

    Language : English

    Default : No

    Forced : No

    Text #4

    ID : 6

    Format : PGS

    Muxing mode : zlib

    Codec ID : S_HDMV/PGS

    Codec ID/Info : Picture based subtitle format used on BDs/HD-DVDs

    Duration : 1 h 22 min

    Bit rate : 3 951 b/s

    Count of elements : 652

    Stream size : 2.32 MiB (0%)

    Title : SDH

    Language : English

    Default : No

    Forced : No

    Text #5

    ID : 7

    Format : PGS

    Muxing mode : zlib

    Codec ID : S_HDMV/PGS

    Codec ID/Info : Picture based subtitle format used on BDs/HD-DVDs

    Duration : 1 h 29 min

    Bit rate : 1 099 b/s

    Count of elements : 346

    Stream size : 721 KiB (0%)

    Language : Arabic

    Default : No

    Forced : No

    Text #6

    ID : 8

    Format : PGS

    Muxing mode : zlib

    Codec ID : S_HDMV/PGS

    Codec ID/Info : Picture based subtitle format used on BDs/HD-DVDs

    Duration : 1 h 29 min

    Bit rate : 2 031 b/s

    Count of elements : 350

    Stream size : 1.30 MiB (0%)

    Title : Cantonese

    Language : Chinese

    Default : No

    Forced : No

    Text #7

    ID : 9

    Format : PGS

    Muxing mode : zlib

    Codec ID : S_HDMV/PGS

    Codec ID/Info : Picture based subtitle format used on BDs/HD-DVDs

    Duration : 1 h 29 min

    Bit rate : 1 839 b/s

    Count of elements : 336

    Stream size : 1.18 MiB (0%)

    Title : Mandarin Traditional

    Language : Chinese

    Default : No

    Forced : No

    Text #8

    ID : 10

    Format : PGS

    Muxing mode : zlib

    Codec ID : S_HDMV/PGS

    Codec ID/Info : Picture based subtitle format used on BDs/HD-DVDs

    Duration : 1 h 29 min

    Bit rate : 1 730 b/s

    Count of elements : 338

    Stream size : 1.11 MiB (0%)

    Language : Czech

    Default : No

    Forced : No

    Text #9

    ID : 11

    Format : PGS

    Muxing mode : zlib

    Codec ID : S_HDMV/PGS

    Codec ID/Info : Picture based subtitle format used on BDs/HD-DVDs

    Duration : 1 h 29 min

    Bit rate : 1 920 b/s

    Count of elements : 342

    Stream size : 1.23 MiB (0%)

    Language : Danish

    Default : No

    Forced : No

    Text #10

    ID : 12

    Format : PGS

    Muxing mode : zlib

    Codec ID : S_HDMV/PGS

    Codec ID/Info : Picture based subtitle format used on BDs/HD-DVDs

    Duration : 1 h 29 min

    Bit rate : 1 812 b/s

    Count of elements : 336

    Stream size : 1.16 MiB (0%)

    Language : Dutch

    Default : No

    Forced : No

    Text #11

    ID : 13

    Format : PGS

    Muxing mode : zlib

    Codec ID : S_HDMV/PGS

    Codec ID/Info : Picture based subtitle format used on BDs/HD-DVDs

    Duration : 1 h 29 min

    Bit rate : 1 867 b/s

    Count of elements : 338

    Stream size : 1.20 MiB (0%)

    Language : Finnish

    Default : No

    Forced : No

    Text #12

    ID : 14

    Format : PGS

    Muxing mode : zlib

    Codec ID : S_HDMV/PGS

    Codec ID/Info : Picture based subtitle format used on BDs/HD-DVDs

    Duration : 1 h 29 min

    Bit rate : 2 188 b/s

    Count of elements : 338

    Stream size : 1.40 MiB (0%)

    Title : Canadian

    Language : French

    Default : No

    Forced : No

    Text #13

    ID : 15

    Format : PGS

    Muxing mode : zlib

    Codec ID : S_HDMV/PGS

    Codec ID/Info : Picture based subtitle format used on BDs/HD-DVDs

    Duration : 1 h 29 min

    Bit rate : 1 944 b/s

    Count of elements : 342

    Stream size : 1.25 MiB (0%)

    Title : Parisian

    Language : French

    Default : No

    Forced : No

    Text #14

    ID : 16

    Format : PGS

    Muxing mode : zlib

    Codec ID : S_HDMV/PGS

    Codec ID/Info : Picture based subtitle format used on BDs/HD-DVDs

    Duration : 1 h 29 min

    Bit rate : 2 161 b/s

    Count of elements : 338

    Stream size : 1.38 MiB (0%)

    Language : German

    Default : No

    Forced : No

    Text #15

    ID : 17

    Format : PGS

    Muxing mode : zlib

    Codec ID : S_HDMV/PGS

    Codec ID/Info : Picture based subtitle format used on BDs/HD-DVDs

    Duration : 1 h 29 min

    Bit rate : 2 092 b/s

    Count of elements : 335

    Stream size : 1.34 MiB (0%)

    Language : Greek

    Default : No

    Forced : No

    Text #16

    ID : 18

    Format : PGS

    Muxing mode : zlib

    Codec ID : S_HDMV/PGS

    Codec ID/Info : Picture based subtitle format used on BDs/HD-DVDs

    Duration : 1 h 29 min

    Bit rate : 2 731 b/s

    Count of elements : 417

    Stream size : 1.75 MiB (0%)

    Language : Hindi

    Default : No

    Forced : No

    Text #17

    ID : 19

    Format : PGS

    Muxing mode : zlib

    Codec ID : S_HDMV/PGS

    Codec ID/Info : Picture based subtitle format used on BDs/HD-DVDs

    Duration : 1 h 29 min

    Bit rate : 1 870 b/s

    Count of elements : 340

    Stream size : 1.20 MiB (0%)

    Language : Hungarian

    Default : No

    Forced : No

    Text #18

    ID : 20

    Format : PGS

    Muxing mode : zlib

    Codec ID : S_HDMV/PGS

    Codec ID/Info : Picture based subtitle format used on BDs/HD-DVDs

    Duration : 1 h 29 min

    Bit rate : 1 997 b/s

    Count of elements : 338

    Stream size : 1.28 MiB (0%)

    Language : Icelandic

    Default : No

    Forced : No

    Text #19

    ID : 21

    Format : PGS

    Muxing mode : zlib

    Codec ID : S_HDMV/PGS

    Codec ID/Info : Picture based subtitle format used on BDs/HD-DVDs

    Duration : 1 h 29 min

    Bit rate : 1 886 b/s

    Count of elements : 339

    Stream size : 1.21 MiB (0%)

    Language : Italian

    Default : No

    Forced : No

    Text #20

    ID : 22

    Format : PGS

    Muxing mode : zlib

    Codec ID : S_HDMV/PGS

    Codec ID/Info : Picture based subtitle format used on BDs/HD-DVDs

    Duration : 1 h 29 min

    Bit rate : 1 494 b/s

    Count of elements : 352

    Stream size : 980 KiB (0%)

    Language : Korean

    Default : No

    Forced : No

    Text #21

    ID : 23

    Format : PGS

    Muxing mode : zlib

    Codec ID : S_HDMV/PGS

    Codec ID/Info : Picture based subtitle format used on BDs/HD-DVDs

    Duration : 1 h 29 min

    Bit rate : 2 165 b/s

    Count of elements : 337

    Stream size : 1.39 MiB (0%)

    Language : Malay

    Default : No

    Forced : No

    Text #22

    ID : 24

    Format : PGS

    Muxing mode : zlib

    Codec ID : S_HDMV/PGS

    Codec ID/Info : Picture based subtitle format used on BDs/HD-DVDs

    Duration : 1 h 29 min

    Bit rate : 1 819 b/s

    Count of elements : 344

    Stream size : 1.17 MiB (0%)

    Language : Norwegian

    Default : No

    Forced : No

    Text #23

    ID : 25

    Format : PGS

    Muxing mode : zlib

    Codec ID : S_HDMV/PGS

    Codec ID/Info : Picture based subtitle format used on BDs/HD-DVDs

    Duration : 1 h 29 min

    Bit rate : 1 661 b/s

    Count of elements : 335

    Stream size : 1.06 MiB (0%)

    Language : Polish

    Default : No

    Forced : No

    Text #24

    ID : 26

    Format : PGS

    Muxing mode : zlib

    Codec ID : S_HDMV/PGS

    Codec ID/Info : Picture based subtitle format used on BDs/HD-DVDs

    Duration : 1 h 29 min

    Bit rate : 1 946 b/s

    Count of elements : 341

    Stream size : 1.25 MiB (0%)

    Title : Iberian

    Language : Portuguese

    Default : No

    Forced : No

    Text #25

    ID : 27

    Format : PGS

    Muxing mode : zlib

    Codec ID : S_HDMV/PGS

    Codec ID/Info : Picture based subtitle format used on BDs/HD-DVDs

    Duration : 1 h 29 min

    Bit rate : 1 753 b/s

    Count of elements : 338

    Stream size : 1.12 MiB (0%)

    Language : Romanian

    Default : No

    Forced : No

    Text #26

    ID : 28

    Format : PGS

    Muxing mode : zlib

    Codec ID : S_HDMV/PGS

    Codec ID/Info : Picture based subtitle format used on BDs/HD-DVDs

    Duration : 1 h 29 min

    Bit rate : 1 697 b/s

    Count of elements : 334

    Stream size : 1.09 MiB (0%)

    Language : Russian

    Default : No

    Forced : No

    Text #27

    ID : 29

    Format : PGS

    Muxing mode : zlib

    Codec ID : S_HDMV/PGS

    Codec ID/Info : Picture based subtitle format used on BDs/HD-DVDs

    Duration : 1 h 29 min

    Bit rate : 1 656 b/s

    Count of elements : 339

    Stream size : 1.06 MiB (0%)

    Language : Slovak

    Default : No

    Forced : No

    Text #28

    ID : 30

    Format : PGS

    Muxing mode : zlib

    Codec ID : S_HDMV/PGS

    Codec ID/Info : Picture based subtitle format used on BDs/HD-DVDs

    Duration : 1 h 29 min

    Bit rate : 1 898 b/s

    Count of elements : 340

    Stream size : 1.22 MiB (0%)

    Title : Castilian

    Language : Spanish

    Default : No

    Forced : No

    Text #29

    ID : 31

    Format : PGS

    Muxing mode : zlib

    Codec ID : S_HDMV/PGS

    Codec ID/Info : Picture based subtitle format used on BDs/HD-DVDs

    Duration : 1 h 29 min

    Bit rate : 1 897 b/s

    Count of elements : 342

    Stream size : 1.22 MiB (0%)

    Title : Latin American

    Language : Spanish

    Default : No

    Forced : No

    Text #30

    ID : 32

    Format : PGS

    Muxing mode : zlib

    Codec ID : S_HDMV/PGS

    Codec ID/Info : Picture based subtitle format used on BDs/HD-DVDs

    Duration : 1 h 29 min

    Bit rate : 1 872 b/s

    Count of elements : 338

    Stream size : 1.20 MiB (0%)

    Language : Swedish

    Default : No

    Forced : No

    Text #31

    ID : 33

    Format : PGS

    Muxing mode : zlib

    Codec ID : S_HDMV/PGS

    Codec ID/Info : Picture based subtitle format used on BDs/HD-DVDs

    Duration : 1 h 29 min

    Bit rate : 1 568 b/s

    Count of elements : 340

    Stream size : 1.01 MiB (0%)

    Language : Thai

    Default : No

    Forced : No

    Text #32

    ID : 34

    Format : PGS

    Muxing mode : zlib

    Codec ID : S_HDMV/PGS

    Codec ID/Info : Picture based subtitle format used on BDs/HD-DVDs

    Duration : 1 h 29 min

    Bit rate : 2 043 b/s

    Count of elements : 350

    Stream size : 1.31 MiB (0%)

    Language : Turkish

    Default : No

    Forced : No

    Menu

    00:00:00.000 : en:Chapter 1
    00:10:19.118 : en:Chapter 2

    00:14:38.002 : en:Chapter 3

    00:21:52.895 : en:Chapter 4

    00:25:09.675 : en:Chapter 5

    00:31:05.155 : en:Chapter 6

    00:36:23.390 : en:Chapter 7

    00:43:47.291 : en:Chapter 8

    00:47:42.693 : en:Chapter 9

    00:53:48.183 : en:Chapter 10

    01:00:31.419 : en:Chapter 11

    01:05:55.368 : en:Chapter 12

    01:10:57.837 : en:Chapter 13

    01:15:29.108 : en:Chapter 14

    01:23:47.272 : en:Chapter 15

    __

    image****

    Special thanks to the "Trilord" friend for the seedbox loan


    image


    More at ibit.to
    And ibit.uno
    And ibit.ws

    Reviews

    This review contains **spoilers**. So let’s First get this out of The way I’ve never been more frustrated, by people eating popcorn, fidgeting, & Coming in late. Anyways form the very start I had so many questions, how’d they get here? Where’d the Monster come from? Etc. And by the end I have no answers and even more questions. Are they gonna survive and kill all the Monsters? Is everyone else dead? Why’d they think to have a baby? But that doesn’t matter. We’re just tossed into this situation with no explanation to almost anything. The only things we really know is of course making lond sounds means you’re likely gonna die. And High Pitch Sounds Hurts the Monster. Wish is a smart Choice and come to think of it is kinda obvious, maybe a little too obvious. Like how’d they never think about that? Either way. A quick note for surviving other then the soundproofing here and there. Why not have a sound bomb of sorts, you could just throw? That would have toldy saved the Dad from having to sacrifice him self. That isn’t to say they’re stupid they had many Smart decisions such a The sand paths, the box for the baby (wish was kinda sad), the little sound proof room, the Radio, and the fireworks. And that’s just the sound related stuff the Lights and Fires Where also Smart. Otherwise the cast give us some incredible performances and lots of good chemistry. It probably helps that John and Emily are a real couple. Speaking of wich John Krasinski has Written and Directed a very clever and suspenseful horror film. I’ve never been more scared of corn in my life. Also had jumped at water. And the sound department specifically the Foley Artist have never shined greater in any film I have ever seen before. The sound is a way flipped from most horror films as it’s when the music drops and everything goes quiet that the Monster attacks. But not in this case everytime the Monster comes it’s a big moment. Although I have nothing against a R rating. In fact I’m somethimes more likely to see a film because of a R rating, it shows they have gus and they are willing to take a risk. F*ck you MPAA!!! Anyways some times all kinds of unnecessary crap is put in a Film because they like oh yeah we’re rated R. Although that’s not always needed this Film proves a well done PG-13 can still be dark and brutal. Killing a Child with in the first 10ish minuets, is a little dark. Although come on that kid had it Coming as soon as he grab those batteries. there’s almost a bit of blood maybe the MPAA is pulling back on some things. Probably not those F*ck you MPAA!!! Ok sorry my review is getting to become rated R. 😆 Also I wanted to note for whatever reason I enjoy films where I can count the entire cast. Along side Get Out it seems people form comedy make better Horror film Directors then most Horror film Directors. It definitely makes sense though it’s all about that timing. In Short It was a gripping film from start to finish. I’d highly recommend to all Horror and Thriller Fans. Although because of spoilers in this review you probably already saw it. So leave a comment and let’s discuss. No likes

    **_No important spoilers here_** In a **dystopic future**, the humanity has been severely smitten by strange blind creatures that feast on living flesh, both human and animal. In spite of being blind, the creatures have a super hearing and can identify sounds from far away. The creatures are nearly indestructible and very effective killers, and once they hear you, you are most likely dead. The movie follows a surviving family trying to keep alive in this harsh reality. The movie setup is incredibly well-built to transpire the precaution, the constant fear, and the direful consequences of an unthought action in this terrible future. **The sound effects are awesome**, and the director can successfully use the nearly-constant silence in contrast to the hassle of being followed by those creatures. The **acting is solid** and helps to immerse the watcher in the well-built plot. My only regret for this movie is that it ends during a climax, when we are not ready to stop watching it yet. **It could be 30 minutes longer** to explain some missing points and to show what happens after the ending. Overall, **an awesome movie**, well-thought and beautifully produced in every aspect.

    Every time a horror movie does something that I've never seen before, that gets me very excited. _A Quiet Place_ is such a movie. I do believe that maybe _A Quiet Place_ doesn't **quite** deserve the praise that it has received. Not that it isn't a good movie, just that said acclaims have been **so** high, to the point that I think maybe just the fact that it's original isn't enough to earn those laurels. I still am a fan of the movie, hardline, absolutely, just maybe a little underwhelmed given the reviews. _Final rating:★★★ - I liked it. Would personally recommend you give it a go._

    This is far and away one of the best movies I have ever watched, and I've watched a lot of movies! The story is original, no small feat these days, and the acting is just outstanding! John Krasinski and Emily Blunt, along with the children, bring these characters to life, and make us really care, all without the benefit of well written dialogue. That's not easy to do, but they do it. Right from the start, you find yourself drawn into the lives of these people, and can feel the tension, the undercurrent of threat, that they live with every day. Through all they face, we are also given a picture of a solid family, with a dad and mom doing everything possible to care for their children, the family praying together, holding onto faith even under the most difficult of circumstances, and that family dynamic really strengthens the entire story. Who do you rely on when all is changed? When everything goes wrong? Family. Along with the acting, the direction, sets, just everything, come together to deliver a truly scary movie, that doesn't rely on flash to terrify you. Highly recommend this one. We saw it in the theater, and bought it as soon as it hit the stores. Top notch work.

    Comments

    1 year ago

    Thank you so much...! :)

    1 year ago

    thanks so much... keep em coming :)

    1 year ago

    Wow... Thanks so much

    1 year ago

    THANK YOU.

    1 year ago

    Why i can't play your files LG WebOS v3.5?

    Files

    A.Quiet.Place.2018.2160p.UHD.HDR.BluRay.(x265 10bit DD5.1).[WMAN-LorD].mkv 3.6 GB
    A.Quiet.Place.2018.2160p.UHD.HDR.BluRay.(x265 10bit DD5.1).[WMANLorD].mkv 3.6 GB

    Stream

    Downloading Seeding A.Quiet.Place.2018.2160p.UHD.HDR.BluRay.(x265 10bit DD5.1).[WMAN-LorD] from to 0 peers.
    of
    0 b/s / ↗0 b/s