• 2
  • 0
  • 3
Sponsored Downloadondemand_video
  • A.Few.Good.Men.1992.1080p.BluRay.H264.AAC-RARBG
  • 2.6 GB
  • Good 1992 1080p BluRay H264 RARBG
  • English
  • x264/1080
74%

A Few Good Men (1992)

  • Drama
  • When cocky military lawyer Lt. Daniel Kaffee and his co-counsel, Lt. Cmdr. JoAnne Galloway, are assigned to a murder case, they uncover a hazing ritual that could implicate high-ranking officials such as shady Col. Nathan Jessep.

    expand_more
    English
  • $40,000,000
  • Description

    In this dramatic courtroom thriller| LT Daniel Kaffee| a Navy lawyer who has never seen the inside of the courtroom| defends two stubborn Marines who have beenaccused of murdering a colleague. Kaffee is known as being lazy and had arranged for a plea bargain. Downey's Aunt Ginny appoints Cmdr. Galloway to represent him.Also on the legal staff is LTJG Sam Weinberg. The team rounds up many facts and Kaffee is discovering that he is really cut out for trial work. The defense isoriginally based upon the fact that PFC Santiago| the victim| was given a "CODE RED". Santiago was basically a screw-up. At Gitmo| screw-ups aren't tolerated.Especially by Col. Nathan Jessup. In Cuba| Jessup and two senior officers try to give all the help they can| but Kaffee knows something's fishy. In the conclusion ofthe film| the fireworks are set off by a confrontation between Jessup and Kaffee.

    http://imdb.com/title/tt0104257/

    http://www.imdb.com/title/tt0104257/

    image

    image

    image

    image

    image

    MediaInfo:

    Video

    ID                                       : 1

    Format                                   : AVC

    Format/Info                              : Advanced Video Codec

    Format profile                           : High@L4.1

    Format settings, CABAC                   : Yes

    Format settings, ReFrames                : 4 frames

    Codec ID                                 : avc1

    Codec ID/Info                            : Advanced Video Coding

    Duration                                 : 2h 18mn

    Bit rate                                 : 2 500 Kbps

    Width                                    : 1 920 pixels

    Height                                   : 816 pixels

    Display aspect ratio                     : 2.35:1

    Frame rate mode                          : Constant

    Frame rate                               : 23.976 fps

    Color space                              : YUV

    Chroma subsampling                       : 4:2:0

    Bit depth                                : 8 bits

    Scan type                                : Progressive

    Bits/(Pixel*Frame)                       : 0.067

    Stream size                              : 2.41 GiB (92%)

    Writing library                          : x264 core 148 r2597M e86f3a1

    Encoding settings                        : cabac=1 / ref=4 / deblock=1:-1:-1 / analyse=0x3:0x113 / me=umh / subme=9 / psy=1 / psyrd=1.00:0.15 / mixedref=1 / merange=24 / chromame=1 / trellis=2 / 8x8dct=1 / cqm=0 / deadzone=21,11 / fastpskip=1 / chromaqpoffset=-3 / threads=32 / lookaheadthreads=4 / slicedthreads=0 / nr=0 / decimate=1 / interlaced=0 / bluraycompat=0 / constrainedintra=0 / bframes=3 / bpyramid=2 / badapt=1 / bbias=0 / direct=1 / weightb=1 / opengop=0 / weightp=2 / keyint=250 / keyintmin=25 / scenecut=40 / intrarefresh=0 / rclookahead=50 / rc=2pass / mbtree=1 / bitrate=2500 / ratetol=1.0 / qcomp=0.60 / qpmin=0 / qpmax=69 / qpstep=4 / cplxblur=20.0 / qblur=0.5 / vbvmaxrate=31250 / vbvbufsize=31250 / nalhrd=none / filler=0 / ipratio=1.40 / aq=3:1.00

    Encoded date                             : UTC 1904-01-01 00:00:00

    Tagged date                              : UTC 1904-01-01 00:00:00

    Audio

    ID                                       : 2

    Format                                   : AAC

    Format/Info                              : Advanced Audio Codec

    Format profile                           : LC

    Codec ID                                 : 40

    Duration                                 : 2h 18mn

    Bit rate mode                            : Constant

    Bit rate                                 : 224 Kbps

    Channel(s)                               : 2 channels

    Channel(s)_Original                      : 6 channels

    Channel positions                        : Front: L C R, Side: L R, LFE

    Sampling rate                            : 48.0 KHz

    Compression mode                         : Lossy

    Stream size                              : 221 MiB (8%)

    Language                                 : English

    Encoded date                             : UTC 1904-01-01 00:00:00

    Tagged date                              : UTC 1904-01-01 00:00:00

    Menu #1

    ID                                       : 3

    Codec ID                                 : text

    Duration                                 : 2h 18mn

    Language                                 : English

    Encoded date                             : UTC 1904-01-01 00:00:00

    Tagged date                              : UTC 1904-01-01 00:00:00

    00:00:00.000                             : Chapter 1

    00:07:58.938                             : Chapter 2

    00:16:32.201                             : Chapter 3

    00:25:08.717                             : Chapter 4

    00:40:06.781                             : Chapter 5

    00:47:42.069                             : Chapter 6

    00:57:11.346                             : Chapter 7

    01:05:26.549                             : Chapter 8

    01:13:03.756                             : Chapter 9

    01:22:52.594                             : Chapter 10

    01:26:20.176                             : Chapter 11

    01:31:10.425                             : Chapter 12

    01:39:52.863                             : Chapter 13

    01:54:37.872                             : Chapter 14

    02:02:41.272                             : Chapter 15

    02:10:35.162                             : Chapter 16

    Bit rate mode                            : VBR

    Menu #2

    00:00:00.043                             : Chapter 1

    00:07:58.938                             : Chapter 2

    00:16:32.201                             : Chapter 3

    00:25:08.717                             : Chapter 4

    00:40:06.781                             : Chapter 5

    00:47:42.069                             : Chapter 6

    00:57:11.346                             : Chapter 7

    01:05:26.549                             : Chapter 8

    01:13:03.756                             : Chapter 9

    01:22:52.594                             : Chapter 10

    01:26:20.176                             : Chapter 11

    01:31:10.425                             : Chapter 12

    01:39:52.863                             : Chapter 13

    01:54:37.872                             : Chapter 14

    02:02:41.272                             : Chapter 15

    02:10:35.162                             : Chapter 16


    More at ibit.to
    And ibit.uno
    And ibit.ws

    Reviews

    “You can’t handle the truth!” RELEASED IN 1992 and directed by Rob Reiner, "A Few Good Men” is a military drama about a smart-axx young Navy Lawyer (Tom Cruise) who’s never seen a courtroom because he lazily arranges plea bargains. Perhaps this is why he’s assigned to defending two young Marines stationed at Guantanamo Bay who are accused of murdering a fellow Marine. They maintain that they were ordered to enact a “Code Red,” which took an unforeseen turn. Demi Moore and Kevin Pollak co-star as the lawyer’s partners while Kevin Bacon heads the prosecution and Jack Nicholson plays the arrogant commanding officer of Guantanamo. J.T. Walsh is on hand as the Colonel’s weak subordinate. The movie does a good job of depicting the honor code of hardcore Marines, particularly in the sequence where Lance Cpl. Dawson (Wolfgang Bodison) refuses to confess to something he didn’t do in order to get a minor sentence. The characters are well written and casted, e.g. Kaffee (Cruise) and his penchant for baseball. The story is dialog-driven and maintains your attention without action/thrills. Nicholson is commanding and intimidating as the pompous colonel. Kaffee discovers his talent as a courtroom lawyer and realizes that the only way to take him down is to use his egotism against him. Other than the cringe-inducing “A Ten Hut” scene at the end, this is a gripping drama. THE FILM RUNS 2 hours, 18 minutes and was shot entirely in Southern Cal (Point Mugu, Crystal Cove, etc.) and Washington DC. WRITERS: Aaron Sorkin (play) and Aaron Sorkin (screenplay). GRADE: B+

    Comments

    Files

    A.Few.Good.Men.1992.1080p.BluRay.H264.AAC-RARBG.mp4 2.6 GB
    A.Few.Good.Men.1992.1080p.BluRay.H264.AAC-RARBG.nfo 5.9 kB
    RARBG.COM.mp4 993 kB
    RARBG.COM.txt 30 B
    Subs/Dan.srt 104 kB
    Subs/Fin.srt 106 kB
    Subs/Fre.srt 110 kB
    Subs/Ger.srt 113 kB
    Subs/Hrv.srt 106 kB
    Subs/Spa.srt 143 kB

    Stream

    Downloading Seeding A.Few.Good.Men.1992.1080p.BluRay.H264.AAC-RARBG from to 0 peers.
    of
    0 b/s / ↗0 b/s