• 0
  • 0
Anonymous Downloadondemand_video
  • 6 Bullets 2012 DVDrip English Skandale
  • 1.7 GB
  • Skandale
  • Bullets 2012 DVDrip English Skandale
  • English
  • Divx/Xvid
Warning! Use a VPN When Downloading Torrents!
Your IP Address is ,
Your Internet Provider can see when you download torrents! Hide your IP ADDRESS with a VPN
We strongly recommend hide.me VPN to hide your torrenting. It's FREE!
DOWNLOAD VPN
59%

6 Bullets (2012)

  • Thriller Action Crime
  • An ex-mercenary known for finding missing children is hired by a mixed martial arts fighter whose daughter has been kidnapped.

    expand_more
    English
  • $10,000,000
  • Description

    image
    met Jean-Claude Van Damme, Joe Flanigan en Anna-Louise Plowman

    Een ex-huursoldaat (Jean-Claude Van Damme) die bekend staat als expert in het vinden van vermiste kinderen, wordt
    ingehuurd door een professioneel beoefenaar van verschillende gevechtsstijlen, Andrew Fayden (Joe Flanigan), wiens dochter Monica (Anna-Louise Plowman) is ontvoerd.

    An ex-mercenary known for finding missing children is hired by a mixed martial arts fighter whose daughter has been kidnapped.

    http://www.imdb.com/title/tt1975249/

    ------------------------ Dutch Friends ------------------------


    ----- voor mijn Nederlandse Sync. ondertitels ---- en meer ----

    ------- http://www.Film-Test.nl ---- voor Films en meer -------


    General

    Complete name : 6 Bullets 2012.avi

    Format : AVI

    Format/Info : Audio Video Interleave

    File size : 1.73 GiB

    Duration : 1h 54mn

    Overall bit rate : 2 161 Kbps

    Video

    ID : 0

    Format : MPEG-4 Visual

    Format profile : [email protected]
    Format settings, BVOP : No

    Format settings, QPel : No

    Format settings, GMC : No warppoints

    Format settings, Matrix : Default (H.263)

    Codec ID : XVID

    Codec ID/Hint : XviD

    Duration : 1h 54mn

    Source duration : 1h 54mn

    Bit rate : 1 703 Kbps

    Width : 624 pixels

    Height : 336 pixels

    Display aspect ratio : 1.85:1

    Frame rate : 23.976 fps

    Color space : YUV

    Chroma subsampling : 4:2:0

    Bit depth : 8 bits

    Scan type : Progressive

    Compression mode : Lossy

    Bits/(Pixel*Frame) : 0.339

    Stream size : 1.36 GiB (79%)

    Writing library : XviD 1.1.2 (UTC 2006-11-01)

    Audio

    ID : 1

    Format : AC-3

    Format/Info : Audio Coding 3

    Mode extension : CM (complete main)

    Format settings, Endianness : Big

    Codec ID : 2000

    Duration : 1h 54mn

    Bit rate mode : Constant

    Bit rate : 448 Kbps

    Channel(s) : 6 channels

    Channel positions : Front: L C R, Side: L R, LFE

    Sampling rate : 48.0 KHz

    Bit depth : 16 bits

    Compression mode : Lossy

    Stream size : 368 MiB (21%)

    Alignment : Aligned on interleaves

    Interleave, duration : 32 ms (0.77 video frame)


    More at ibit.to
    And ibit.uno
    And ibit.am
    And ibit.ws

    Reviews

    Comments

    Files

    6 Bullets 2012.avi 1.7 GB
    Cover/Six-Bullets-2012--Front-Cover-69538 (1).jpg 60 kB
    flyer.jpg 33 kB
    New Dutch Site.txt 100 B

    Stream

    Downloading Seeding 6 Bullets 2012 DVDrip English Skandale from to 0 peers.
    of
    0 b/s / ↗0 b/s