• 8
  • 1
  • 2,139
  • done
Sponsored Downloadondemand_video
71%

300 (2007)

  • Action Adventure War
  • Based on Frank Miller's graphic novel, "300" is very loosely based the 480 B.C. Battle of Thermopylae, where the King of Sparta led his army against the advancing Persians; the battle is said to have inspired all of Greece to band together against the Persians, and helped usher in the world's first democracy.

    expand_more
    English
  • $65,000,000
  • Description

    image

    General

    Complete name : 300 (2006) 720p Hindi Dubbed + English HDRip x264 AC3 ESub by Full4movies.mkv

    Format : Matroska

    Format version : Version 4 / Version 2

    File size : 1.20 GiB

    Duration : 1 h 56 min

    Overall bit rate : 1 474 kb/s

    Encoded date : UTC 2018-07-19 07:00:14

    Writing application : mkvmerge v8.1.0 ('Psychedelic Postcard') 32bit

    Writing library : libebml v1.3.1 + libmatroska v1.4.2

    Video

    ID : 1

    Format : AVC

    Format/Info : Advanced Video Codec

    Format profile : [email protected]
    Format settings, CABAC : Yes

    Format settings, RefFrames : 12 frames

    Codec ID : V_MPEG4/ISO/AVC

    Duration : 1 h 56 min

    Bit rate : 1 024 kb/s

    Width : 1 280 pixels

    Height : 536 pixels

    Display aspect ratio : 2.40:1

    Frame rate mode : Constant

    Frame rate : 23.976 (24000/1001) FPS

    Color space : YUV

    Chroma subsampling : 4:2:0

    Bit depth : 8 bits

    Scan type : Progressive

    Bits/(Pixel*Frame) : 0.062

    Stream size : 853 MiB (69%)

    Writing library : x264 core 148 r2744 b97ae06

    Language : Hindi

    Default : Yes

    Forced : Yes

    Color range : Limited

    Color primaries : BT.709

    Transfer characteristics : BT.709

    Matrix coefficients : BT.709

    Audio #1

    ID : 2

    Format : AC-3

    Format/Info : Audio Coding 3

    Mode : Dolby Digital

    Format settings, Endianness : Big

    Codec ID : A_AC3

    Duration : 1 h 56 min

    Bit rate mode : Constant

    Bit rate : 224 kb/s

    Channel(s) : 2 channels

    Channel positions : Front: L R

    Sampling rate : 48.0 kHz

    Frame rate : 31.250 FPS (1536 SPF)

    Bit depth : 16 bits

    Compression mode : Lossy

    Stream size : 187 MiB (15%)

    Language : Hindi

    Service kind : Complete Main

    Default : Yes

    Forced : Yes

    Audio #2

    ID : 3

    Format : AC-3

    Format/Info : Audio Coding 3

    Format settings, Endianness : Big

    Codec ID : A_AC3

    Duration : 1 h 56 min

    Bit rate mode : Constant

    Bit rate : 224 kb/s

    Channel(s) : 6 channels

    Channel positions : Front: L C R, Side: L R, LFE

    Sampling rate : 48.0 kHz

    Frame rate : 31.250 FPS (1536 SPF)

    Bit depth : 16 bits

    Compression mode : Lossy

    Stream size : 187 MiB (15%)

    Language : English

    Service kind : Complete Main

    Default : No

    Forced : No

    Text

    ID : 4

    Format : UTF-8

    Codec ID : S_TEXT/UTF8

    Codec ID/Info : UTF-8 Plain Text

    Duration : 1 h 47 min

    Bit rate : 39 b/s

    Count of elements : 961

    Stream size : 31.3 KiB (0%)

    Language : English

    Default : Yes

    Forced : Yes

    Screen Shoots
    image


    More at ibit.to
    And ibit.uno
    And ibit.ws

    Reviews

    <i>300</i>, the 2007 story of the three hundred Spartans who held off a massive Persian offensive in Ancient Greece, proved a disappointing film. In spite of my Classics degree, I won't complain about the divergences from recorded fact. The film is clearly meant to be a fantasy on historical themes instead of a faithful account of the event. Rather, what irked me was the hammy dialogue. There were the tropes of recent Hollywood battle scenes: warriors on the good guys' side defending themselves with little exertion as they trade silly quips about how they've got each other's backs. A queen gives an address to a council that is all melodrama -- are we back in George Lucas' "Star Wars" prequels? Having enjoyed <i>Sin City</i>, a film with a similar green screen approach, I thought that <i>300</i> would be enjoyable on the basis of its special effects, but alas it wasn't. For one, the cinematography is claustrophobic. All outdoor scenes but one were filmed with a green screen, and the digital backdrops add no depth. Even when supposedly standing on the Greek coast under a big sky, everyone seems like they are just standing around in a fairly small room. Also, the fight scenes seem more primitive than considering that this film followed years after <i>The Matrix Reloaded</i>. The little I can recommend <i>300</i> for is the variety of demonic monsters and exotic costumed assassins that fill the Persian army. As I said, this is a fantasy on historical themes, and the additions are often interesting. Still, I had a hard time sitting through the whole film.

    Leather underwear and a cape is honestly such a Look™. _300_ cops a lot of flak for being all style and no substance, and I'm not gonna stand here and lie to you by refuting that. What I will say however, is that style over substance does not inherently make a movie bad. _300_ is a lot of fun, you get what's going on, and there's some genuine rewatch value. Final rating:★★★½ - I really liked it. Would strongly recommend you give it your time.

    Comments

    Files

    300 (2006) 720p [Hindi Dubbed + English] (DD 5.1) HDRip x264 AC3 ESub by Full4movies.mkv 1.2 GB

    Stream

    Downloading Seeding 300 (2006) 720p [Hindi Dubbed + English] (DD 5.1) HDRip x264 AC3 ESub by Full4movies from to 0 peers.
    of
    0 b/s / ↗0 b/s