• 0
  • 0
Sponsored Downloadondemand_video
40%

2001 Maniacs: Field of Screams (2010)

  • Comedy Horror
  • When this year's round of unsuspecting Northerners fail to show up for their annual Guts N' Glory Jamboree, the residents of Pleasant Valley take their cannibalistic carnival on the road and head to Iowa where they encounter spoiled heiresses Rome & Tina Sheraton and the cast and crew of their "Road Rascals" reality show. Performing "The Bloodiest Show on Earth", our Southern Maniacs prove more than ratings killers in what John Landis has called "one of the rare sequels that surpasses the original".

    expand_more
    English
  • $500,000
  • Description

    When this year's round of unsuspecting Northerners fail to show up for their annual Guts N' Glory Jamboree| the residents of Pleasant Valley take their cannibalisticcarnival on the road and head to Iowa where they encounter spoiled heiresses Rome & Tina Sheraton and the cast and crew of their "Road Rascals" reality show.Performing "The Bloodiest Show on Earth"| our Southern Maniacs prove more than ratings killers.

    http://imdb.com/title/tt0858411/

    http://www.imdb.com/title/tt0858411/

    image

    image

    image

    image

    image

    MediaInfo:

    Video

    ID                                       : 1

    Format                                   : AVC

    Format/Info                              : Advanced Video Codec

    Format profile                           : High@L4.1

    Format settings, CABAC                   : Yes

    Format settings, ReFrames                : 4 frames

    Codec ID                                 : avc1

    Codec ID/Info                            : Advanced Video Coding

    Duration                                 : 1h 18mn

    Bit rate                                 : 1 500 Kbps

    Width                                    : 1 280 pixels

    Height                                   : 720 pixels

    Display aspect ratio                     : 16:9

    Frame rate mode                          : Constant

    Frame rate                               : 23.976 (23976/1000) fps

    Color space                              : YUV

    Chroma subsampling                       : 4:2:0

    Bit depth                                : 8 bits

    Scan type                                : Progressive

    Bits/(Pixel*Frame)                       : 0.068

    Stream size                              : 846 MiB (87%)

    Writing library                          : x264 core 148 r2638M 7599210

    Encoding settings                        : cabac=1 / ref=4 / deblock=1:-1:-1 / analyse=0x3:0x113 / me=umh / subme=9 / psy=1 / psyrd=1.00:0.15 / mixedref=1 / merange=24 / chromame=1 / trellis=2 / 8x8dct=1 / cqm=0 / deadzone=21,11 / fastpskip=1 / chromaqpoffset=-3 / threads=32 / lookaheadthreads=4 / slicedthreads=0 / nr=0 / decimate=1 / interlaced=0 / bluraycompat=0 / constrainedintra=0 / bframes=3 / bpyramid=2 / badapt=2 / bbias=0 / direct=3 / weightb=1 / opengop=0 / weightp=2 / keyint=250 / keyintmin=25 / scenecut=40 / intrarefresh=0 / rclookahead=50 / rc=2pass / mbtree=1 / bitrate=1500 / ratetol=1.0 / qcomp=0.60 / qpmin=0 / qpmax=69 / qpstep=4 / cplxblur=20.0 / qblur=0.5 / vbvmaxrate=31250 / vbvbufsize=31250 / nalhrd=none / filler=0 / ipratio=1.40 / aq=3:1.00

    Encoded date                             : UTC 2016-05-15 21:05:12

    Tagged date                              : UTC 2016-05-15 21:05:12

    Audio

    ID                                       : 2

    Format                                   : AAC

    Format/Info                              : Advanced Audio Codec

    Format profile                           : LC

    Codec ID                                 : 40

    Duration                                 : 1h 19mn

    Bit rate mode                            : Constant

    Bit rate                                 : 224 Kbps

    Channel(s)                               : 2 channels

    Channel(s)_Original                      : 6 channels

    Channel positions                        : Front: L C R, Side: L R, LFE

    Sampling rate                            : 48.0 KHz

    Frame rate                               : 46.875 fps (1024 spf)

    Compression mode                         : Lossy

    Stream size                              : 127 MiB (13%)

    Language                                 : English

    Default                                  : Yes

    Alternate group                          : 1

    Encoded date                             : UTC 2016-05-15 21:05:12

    Tagged date                              : UTC 2016-05-15 21:05:12


    More at ibit.to
    And ibit.uno
    And ibit.ws

    Reviews

    Comments

    Files

    2001.Maniacs.Field.of.Screams.2010.720p.BluRay.H264.AAC-RARBG.mp4 977 MB
    2001.Maniacs.Field.of.Screams.2010.720p.BluRay.H264.AAC-RARBG.nfo 4.0 kB
    RARBG.COM.mp4 993 kB
    RARBG.COM.txt 30 B

    Stream

    Downloading Seeding 2001.Maniacs.Field.of.Screams.2010.720p.BluRay.H264.AAC-RARBG from to 0 peers.
    of
    0 b/s / ↗0 b/s