• 0
  • 0
  • done
Anonymous Download
  • 2 Chainz - ColleGrove (2016)
  • 319 MB
  • marstle
  • Chainz ColleGrove 2016
  • Рэп, Хип-Хоп, R'n'B
Warning! Use a VPN When Downloading Torrents!
Your IP Address is ,
Your Internet Provider can see when you download torrents! Hide your IP ADDRESS with a VPN
We strongly recommend Trust.Zone VPN to hide your torrenting. It's FREE!
DOWNLOAD VPN

Description

2 Chainz / ColleGrove


image

Жанр : Hip-Hop, Rap

Носитель : CD

Страна-производитель диска (релиза) : USA

Год издания : March 4, 2016

Издатель (лейбл) : Def Jam Recordings

Номер по каталогу : B0024843-02

Страна исполнителя (группы) : USA

Продюсеры : 2 Chainz (exec.), Lil Wayne (exec.), Ben Billion$, Bobby Kritical, FKi, Da Honorable C.N.O.T.E., Mike Dean, Frank Dukes, Infamous, Mike Will Made It, The Mad Violinist, TM88, Zaytoven, Lil' C, Metro Boomin, [email protected], London on da Track, Southside, Reignman Rich, Mannie Fresh, Mr. 2-17

Аудиокодек : FLAC (*.flac)

Тип рипа : tracks+.cue

Битрейт аудио : lossless

Продолжительность : 00:47:14

Источник (релизер) : What.cd/mrbonesSTL

Наличие сканов в содержимом раздачи : нет

Треклист :

01 Dedication (4:59)

02 Smell Like Money (feat. Lil Wayne) (4:46)

03 Bounce (feat. Lil Wayne) (4:21)

04 Gotta Lotta (feat. Lil Wayne) (3:36)

05 MFN Right (3:23)

06 Blue C-Note (feat. Lil Wayne) (2:51)

07 Not Invited (3:16)

08 Bentley Truck (feat. Lil Wayne) (4:37)

09 100 Joints (3:39)

10 Rolls Royce Weather Every Day (feat. Lil Wayne) (3:07)

11 What Happened (feat. Lil Wayne) (4:58)

12 Section (feat. Lil Wayne) (3:55)


Лог создания рипа

`Exact Audio Copy V1.1 from 23. June 2015

EAC extraction logfile from 5. April 2016, 11:54

2 Chainz / Collegrove

Used drive : HL-DT-STBD-RE WH16NS40 Adapter: 1 ID: 0

Read mode : Secure
Utilize accurate stream : Yes
Defeat audio cache : Yes
Make use of C2 pointers : No

Read offset correction : 6
Overread into Lead-In and Lead-Out : No
Fill up missing offset samples with silence : Yes
Delete leading and trailing silent blocks : No
Null samples used in CRC calculations : Yes
Used interface : Native Win32 interface for Win NT & 2000
Gap handling : Appended to previous track

Used output format : User Defined Encoder
Selected bitrate : 128 kBit/s
Quality : High
Add ID3 tag : No
Command line compressor : C:Program Files (x86)Exact Audio CopyFlacflac.exe
Additional command line options : -8 -e -V -T "ARTIST=%artist%" -T "TITLE=%src%" -T "ALBUM=%albumsrc%" -T "DATE=%year%" -T "TRACKNUMBER=%tracknr%" -T "GENRE=%genre%" -T "PERFORMER=%albuminterpret%" -T "COMPOSER=%composer%" %haslyrics%--tag-from-file=LYRICS="%lyricsfile%"%haslyrics% -T "ALBUMARTIST=%albumartist%" -T "DISCNUMBER=%cdnumber%" -T "TOTALDISCS=%totalcds%" -T "TOTALTRACKS=%numtracks%" -T "COMMENT=%comment%" %source% -o %dest%

TOC of the extracted CD

Track | Start | Length | Start sector | End sector


1 | 0:00.00 | 4:57.66 | 0 | 22340
2 | 4:57.66 | 4:50.39 | 22341 | 44129
3 | 9:48.30 | 4:17.58 | 44130 | 63462
4 | 14:06.13 | 3:34.54 | 63463 | 79566
5 | 17:40.67 | 3:24.14 | 79567 | 94880
6 | 21:05.06 | 2:50.69 | 94881 | 107699
7 | 23:56.00 | 3:14.42 | 107700 | 122291
8 | 27:10.42 | 4:35.57 | 122292 | 142973
9 | 31:46.24 | 3:36.41 | 142974 | 159214
10 | 35:22.65 | 3:05.20 | 159215 | 173109
11 | 38:28.10 | 4:57.68 | 173110 | 195452
12 | 43:26.03 | 3:55.33 | 195453 | 213110

Track 1

Filename H:EACRiPS2 Chainz-Collegrove-2016-FLAC01 - Dedication.wav

Pre-gap length 0:00:02.00

Peak level 100.0 %
Extraction speed 3.4 X
Track quality 100.0 %
Test CRC 43CCF976
Copy CRC 43CCF976
Track not present in AccurateRip database
Copy OK

Track 2

Filename H:EACRiPS2 Chainz-Collegrove-2016-FLAC02 - Smell Like Money (ft Lil Wayne).wav

Peak level 100.0 %
Extraction speed 3.5 X
Track quality 99.9 %
Test CRC 67430082
Copy CRC 67430082
Track not present in AccurateRip database
Copy OK

Track 3

Filename H:EACRiPS2 Chainz-Collegrove-2016-FLAC03 - Bounce (ft Lil Wayne).wav

Pre-gap length 0:00:00.02

Peak level 100.0 %
Extraction speed 4.2 X
Track quality 100.0 %
Test CRC 5299B4E1
Copy CRC 5299B4E1
Track not present in AccurateRip database
Copy OK

Track 4

Filename H:EACRiPS2 Chainz-Collegrove-2016-FLAC04 - Gotta Lotta (ft Lil Wayne).wav

Peak level 100.0 %
Extraction speed 4.3 X
Track quality 100.0 %
Test CRC 7DC624EF
Copy CRC 7DC624EF
Track not present in AccurateRip database
Copy OK

Track 5

Filename H:EACRiPS2 Chainz-Collegrove-2016-FLAC05 - MFN Right.wav

Peak level 100.0 %
Extraction speed 3.9 X
Track quality 99.9 %
Test CRC 4C5C85F6
Copy CRC 4C5C85F6
Track not present in AccurateRip database
Copy OK

Track 6

Filename H:EACRiPS2 Chainz-Collegrove-2016-FLAC06 - Blue C-Note (ft Lil Wayne).wav

Peak level 100.0 %
Extraction speed 3.5 X
Track quality 100.0 %
Test CRC C70161A5
Copy CRC C70161A5
Track not present in AccurateRip database
Copy OK

Track 7

Filename H:EACRiPS2 Chainz-Collegrove-2016-FLAC07 - Not Invited.wav

Peak level 100.0 %
Extraction speed 3.2 X
Track quality 99.9 %
Test CRC 02AA5799
Copy CRC 02AA5799
Track not present in AccurateRip database
Copy OK

Track 8

Filename H:EACRiPS2 Chainz-Collegrove-2016-FLAC08 - Bentley Truck (ft Lil Wayne).wav

Peak level 100.0 %
Extraction speed 2.9 X
Track quality 100.0 %
Test CRC 7170D9BF
Copy CRC 7170D9BF
Track not present in AccurateRip database
Copy OK

Track 9

Filename H:EACRiPS2 Chainz-Collegrove-2016-FLAC09 - 100 Joints.wav

Peak level 100.0 %
Extraction speed 3.0 X
Track quality 100.0 %
Test CRC 50CBD1F6
Copy CRC 50CBD1F6
Track not present in AccurateRip database
Copy OK

Track 10

Filename H:EACRiPS2 Chainz-Collegrove-2016-FLAC10 - Rolls Royce Weather Every Day (ft Lil Wayne).wav

Peak level 100.0 %
Extraction speed 2.6 X
Track quality 99.9 %
Test CRC 33FF8A73
Copy CRC 33FF8A73
Track not present in AccurateRip database
Copy OK

Track 11

Filename H:EACRiPS2 Chainz-Collegrove-2016-FLAC11 - What Happened (ft Lil Wayne).wav

Peak level 100.0 %
Extraction speed 1.9 X
Track quality 100.0 %
Test CRC 792040C9
Copy CRC 792040C9
Track not present in AccurateRip database
Copy OK

Track 12

Filename H:EACRiPS2 Chainz-Collegrove-2016-FLAC12 - Section (ft Lil Wayne).wav

Peak level 100.0 %
Extraction speed 2.0 X
Track quality 100.0 %
Test CRC 20425B8A
Copy CRC 20425B8A
Track not present in AccurateRip database
Copy OK

None of the tracks are present in the AccurateRip database

No errors occurred

End of status report

---- CUETools DB Plugin V2.1.6

[CTDB TOCID: fkjXEWqJ7uX0JnPpfXpD2y0xpeQ-] found
Submit result: fkjXEWqJ7uX0JnPpfXpD2y0xpeQ- has been confirmed
Track | CTDB Status
1 | (2/2) Accurately ripped
2 | (2/2) Accurately ripped
3 | (2/2) Accurately ripped
4 | (2/2) Accurately ripped
5 | (2/2) Accurately ripped
6 | (2/2) Accurately ripped
7 | (2/2) Accurately ripped
8 | (2/2) Accurately ripped
9 | (2/2) Accurately ripped
10 | (2/2) Accurately ripped
11 | (2/2) Accurately ripped
12 | (2/2) Accurately ripped

==== Log checksum 083A209E1262F6D52B9B87C2EF61FD07F7D59CA45299D312232DAD6E7FC02D6A ==== `

Содержание индексной карты (.CUE)

REM GENRE Rap REM DATE 2016 REM DISCID 9E0B190C REM COMMENT "ExactAudioCopy v1.1" PERFORMER "2 Chainz" TITLE "Collegrove" FILE "01 - Dedication.flac" WAVE TRACK 01 AUDIO TITLE "Dedication" PERFORMER "2 Chainz" INDEX 01 00:00:00 FILE "02 - Smell Like Money (ft Lil Wayne).flac" WAVE TRACK 02 AUDIO TITLE "Smell Like Money (ft Lil Wayne)" PERFORMER "2 Chainz" INDEX 01 00:00:00 TRACK 03 AUDIO TITLE "Bounce (ft Lil Wayne)" PERFORMER "2 Chainz" INDEX 00 04:50:37 FILE "03 - Bounce (ft Lil Wayne).flac" WAVE INDEX 01 00:00:00 FILE "04 - Gotta Lotta (ft Lil Wayne).flac" WAVE TRACK 04 AUDIO TITLE "Gotta Lotta (ft Lil Wayne)" PERFORMER "2 Chainz" INDEX 01 00:00:00 FILE "05 - MFN Right.flac" WAVE TRACK 05 AUDIO TITLE "MFN Right" PERFORMER "2 Chainz" INDEX 01 00:00:00 FILE "06 - Blue C-Note (ft Lil Wayne).flac" WAVE TRACK 06 AUDIO TITLE "Blue C-Note (ft Lil Wayne)" PERFORMER "2 Chainz" INDEX 01 00:00:00 FILE "07 - Not Invited.flac" WAVE TRACK 07 AUDIO TITLE "Not Invited" PERFORMER "2 Chainz" INDEX 01 00:00:00 FILE "08 - Bentley Truck (ft Lil Wayne).flac" WAVE TRACK 08 AUDIO TITLE "Bentley Truck (ft Lil Wayne)" PERFORMER "2 Chainz" INDEX 01 00:00:00 FILE "09 - 100 Joints.flac" WAVE TRACK 09 AUDIO TITLE "100 Joints" PERFORMER "2 Chainz" INDEX 01 00:00:00 FILE "10 - Rolls Royce Weather Every Day (ft Lil Wayne).flac" WAVE TRACK 10 AUDIO TITLE "Rolls Royce Weather Every Day (ft Lil Wayne)" PERFORMER "2 Chainz" INDEX 01 00:00:00 FILE "11 - What Happened (ft Lil Wayne).flac" WAVE TRACK 11 AUDIO TITLE "What Happened (ft Lil Wayne)" PERFORMER "2 Chainz" INDEX 01 00:00:00 FILE "12 - Section (ft Lil Wayne).flac" WAVE TRACK 12 AUDIO TITLE "Section (ft Lil Wayne)" PERFORMER "2 Chainz" INDEX 01 00:00:00

Об исполнителе (группе)

Tauheed Epps (born September 12, 1977), better known by his stage name 2 Chainz (formerly Tity Boi), is an American rapper from College Park, Georgia. He initially gained recognition for being one-half of the Southern hip hop duo Playaz Circle, alongside his longtime friend and fellow rapper, Earl "Dolla Boy" Conyers. They are perhaps best known for being signed to fellow Georgia-based rapper Ludacris' Disturbing tha Peace label, as well as their debut single "Duffle Bag Boy".


In February 2012, Epps signed a solo record deal with Def Jam Records, an imprint of Universal Music Group. The following August, he released his debut studio album Based on a T.R.U. Story, to mixed reviews. The album spawned three successful singles: "No Lie", "Birthday Song", and "I'm Different", all of which charted in the top 50 of the Billboard Hot 100 and were certified Gold or higher by the RIAA, along with the album being certified Gold. His second studio album B.O.A.T.S. II: Me Time was released on September 11, 2013. It was supported by the singles "Feds Watching", "Where U Been?", and "Used 2".

Об альбоме (сборнике)

ColleGrove is the third studio album by American hip hop recording artist 2 Chainz. It was released on March 4, 2016, by Def Jam Recordings. The album was initially a collaborative effort between 2 Chainz and fellow American rapper Lil Wayne, but due to his record label issues, only Chainz was credited as the primary artist. The album includes production from several high-profile record producers; including Mike Will Made It, TM88, Infamous, Zaytoven, Lil' C, Metro Boomin, Ben Billion$ and London on da Track, among others. ColleGrove received generally positive reviews from critics and it debuted at number 4 on the US Billboard 200.


ColleGrove has received generally positive reviews from music critics. The New York Times spoke on Wayne's involvement on the project "His best verses here are his most spirited rapping in at least two years. Consider the context, though. “Collegrove” isn’t even a full collaborative album, but a 2 Chainz album on which he plays sidekick. (There it is in the credits: “Lil Wayne appears courtesy of Cash Money Records Inc.”) 2 Chainz is an ornery rapper, occasionally stumbling into vivid word clouds. Every time he heads in an unexpected direction here, Lil Wayne seems eager to step up to the challenge. Even his throwaway lines — “Asinine/ I get blow like dandelions” — have the eyebrow-arching zing of his prime. Maybe some time away from the spotlight has calmed him. Maybe the seeming détente in his relationship with Baby has freed him. Or maybe appearing on someone else’s album, rather than his own, has allowed him to be loose once more."


ColleGrove debuted at number 4 on the US Billboard 200, earning 53,000 equivalent album units for the week ending March 10, 2016. It sums it up for the copies of 34,000 for the pure album sales in the United States.


More at ibit.to
And ibit.uno
And ibit.ws

Comments

Files

01 - Dedication.flac 35 MB
02 - Smell Like Money (ft Lil Wayne).flac 33 MB
03 - Bounce (ft Lil Wayne).flac 29 MB
04 - Gotta Lotta (ft Lil Wayne).flac 25 MB
05 - MFN Right.flac 18 MB
06 - Blue C-Note (ft Lil Wayne).flac 19 MB
07 - Not Invited.flac 18 MB
08 - Bentley Truck (ft Lil Wayne).flac 28 MB
09 - 100 Joints.flac 25 MB
10 - Rolls Royce Weather Every Day (ft Lil Wayne).flac 22 MB
11 - What Happened (ft Lil Wayne).flac 36 MB
12 - Section (ft Lil Wayne).flac 24 MB
2 Chainz - Collegrove.log 13 kB
ArtworkBack.jpg [3.18 MB]Front.jpg 3.3 MB
Back.jpg 3.2 MB
Front.jpg 3.3 MB
Collegrove.cue 1.9 kB

Stream

Downloading Seeding 2 Chainz - ColleGrove (2016) from to 0 peers.
of
0 b/s / ↗0 b/s