• 0
  • 1
  • done
Anonymous Downloadondemand_video
  • 18+.Truth.or.Dare.2018.720p.WEB-DL X264.LG
  • 1.2 GB
  • LifeLongg
  • Truth Dare 2018 720p X264 WEB
  • English
  • Horror
Warning! Use a VPN When Downloading Torrents!
Your IP Address is ,
Your Internet Provider can see when you download torrents! Hide your IP ADDRESS with a VPN
We strongly recommend Trust.Zone VPN to hide your torrenting. It's FREE!
DOWNLOAD VPN

Description

***************************Thumbnail:*******************

image

***************************Screenshots:*****************

Screenshot 1

Screenshot 2

Screenshot 3

Screenshot 4

Screenshot 5

Screenshot 6

Screenshot 7

Screenshot 8

Screenshot 9

Screenshot 0


Complete name : 18+.Truth.or.Dare.2018.720p.WEB-DL X264.LLG.mp4
Format : MPEG-4
Format profile : Base Media
Codec ID : isom (isom/iso2/avc1/mp41)
File size : 1.14 GiB
Duration : 1 h 41 min
Overall bit rate : 1 609 kb/s
Writing application : Lavf57.56.101

Video
ID : 1
Format : AVC
Format/Info : Advanced Video Codec
Format profile : [email protected]
Format settings : CABAC / 4 Ref Frames
Format settings, CABAC : Yes
Format settings, RefFrames : 4 frames
Codec ID : avc1
Codec ID/Info : Advanced Video Coding
Duration : 1 h 40 min
Bit rate : 1 500 kb/s
Width : 1 264 pixels
Height : 528 pixels
Display aspect ratio : 2.40:1
Frame rate mode : Constant
Frame rate : 23.976 (23976/1000) FPS
Color space : YUV
Chroma subsampling : 4:2:0
Bit depth : 8 bits
Scan type : Progressive
Bits/(Pixel*Frame) : 0.094
Stream size : 1.05 GiB (92%)

Audio
ID : 2
Format : MPEG Audio
Format version : Version 1
Format profile : Layer 3
Format settings : Joint stereo
Codec ID : mp4a-6B
Duration : 1 h 41 min
Bit rate mode : Constant
Bit rate : 128 kb/s
Channel(s) : 2 channels
Sampling rate : 44.1 kHz
Compression mode : Lossy
Stream size : 93.0 MiB (8%)
Writing library : LAME3.99.5
Default : Yes
Alternate group : 1


More at ibit.to
And ibit.uno
And ibit.ws

Comments

Files

Sample.ts 11 MB
18+.Truth.or.Dare.2018.720p.WEB-DL X264.LG.mp4 1.2 GB
18+.Truth.or.Dare.2018.720p.WEBDL X264.LG -
18+.Truth.or.Dare.2018.720p.WEBDL X264.LG.mp4 1.1 GB

Stream

Downloading Seeding 18+.Truth.or.Dare.2018.720p.WEB-DL X264.LG from to 0 peers.
of
0 b/s / ↗0 b/s