• 0
  • 0
  • 6,491
  • done
Sponsored Downloadondemand_video
  • 18+ The Last Warrior 2018 UNCENSORED Movies BRRip x264 5.1 +Samp
  • 848 MB
  • basicssom
  • Warrior 2018 UNCENSORED Movies BRRip x264 Samp
  • English
  • Movies
61%

The Scythian (2018)

  • Action Drama Fantasy History Adventure
  • These are times when one civilization is replacing another. A new era is about to begin in Central Eurasia. Scythians, the proud warriors, are all but gone. The few of their descendants have become ruthless mercenary assassins, the “waves of Ares.” Lutobor, is a soldier with a difficult task at hand. He becomes involved in internecine conflicts and sets off on a perilous journey to save his family. His guide is a captive Scythian by the name of Weasel. Lutobor and Weasel are enemies. They pray to different gods but must embark on this journey together. They brave the wild steppes, moving toward the last haven of the Scythians, to what seems to be their inevitable demise…

    expand_more
    Russian
  • $2,500,000
  • Description

    18+ The Last Warrior 2018 UNCENSORED Movies BRRip x264 5.1 with Sample ☻rDX☻

    ===============================================================================================

    SCREEN SHOTS:

    image

    or

    http://iphonehosting.eu/2018/8/medicine/1.html

    File size : 839 MiB

    Duration : 1 h 44 min

    Overall bit rate mode : Constant

    Overall bit rate : 1 122 kb/s

    Movie name : 18+ The Last Warrior 2018 UNCENSORED Movies BRRip x264 5.1 ☻rDX☻

    Video

    ID : 2

    Format : AVC

    Format/Info : Advanced Video Codec

    Format profile : [email protected]
    Format settings, CABAC : Yes

    Format settings, ReFrames : 2 frames

    Format settings, GOP : M=1, N=12

    Codec ID : V_MPEG4/ISO/AVC

    Duration : 1 h 44 min

    Bit rate mode : Constant

    Bit rate : 675 kb/s

    Width : 720 pixels

    Height : 304 pixels

    Display aspect ratio : 2.35:1

    Frame rate mode : Constant

    Frame rate : 23.976 FPS

    Color space : YUV

    Chroma subsampling : 4:2:0

    Bit depth : 8 bits

    Scan type : Progressive

    Bits/(Pixel*Frame) : 0.129

    Stream size : 487 MiB (58%)

    Title : ☻rDX☻

    Default : Yes

    Forced : No

    Audio

    ID : 1

    Format : AC-3

    Format/Info : Audio Coding 3

    Mode extension : CM (complete main)

    Format settings, Endianness : Big

    Codec ID : A_AC3

    Duration : 1 h 44 min

    Bit rate mode : Constant

    Bit rate : 448 kb/s

    Channel(s) : 6 channels

    Channel positions : Front: L C R, Side: L R, LFE

    Sampling rate : 48.0 kHz

    Frame rate : 31.250 FPS (1536 spf)

    Bit depth : 16 bits

    Compression mode : Lossy

    Stream size : 335 MiB (40%)

    Title : ☻rDX☻

    Default : Yes

    Forced : No

    image

    IMDB : https://www.imdb.com/title/tt7844166


    More at ibit.to
    And ibit.uno
    And ibit.ws

    Reviews

    Comments

    Files

    Sample ~ 18+ The Last Warrior 2018 UNCENSORED Movies BRRip x264 5.1 ☻rDX☻..mkv -
    18+ The Last Warrior 2018 UNCENSORED Movies BRRip x264 5.1 ☻rDX☻.mkv -
    18+ The Last Warrior 2018 UNCENSORED Movies BRRip x264 5.1 with Sample ☻rDX☻/Sample ~ 18+ The Last Warrior 2018 UNCENSORED Movies BRRip x264 5.1 ☻rDX☻ 9.0 MB
    18+ The Last Warrior 2018 UNCENSORED Movies BRRip x264 5.1 with Sample ☻rDX☻/18+ The Last Warrior 2018 UNCENSORED Movies BRRip x264 5.1 ☻rDX☻.mkv 839 MB

    Stream

    Downloading Seeding 18+ The Last Warrior 2018 UNCENSORED Movies BRRip x264 5.1 +Samp from to 0 peers.
    of
    0 b/s / ↗0 b/s