• 8
  • 3
  • 3,034
  • done
Sponsored Downloadondemand_video
  • 18+ Ghostland 2018 Movies 720p BluRay x264 5.1 with Sample ☻rDX☻
  • 892 MB
  • basicssom
  • Ghostland 2018 Movies 720p BluRay x264 Sample rDX
  • English
  • HD - Movies
72%

Ghostland (2018)

  • Horror Mystery Thriller
  • A mother of two inherits a home from her aunt. On the first night in the new home she is confronted with murderous intruders and fights for her daughters’ lives. Sixteen years later the daughters reunite at the house, and that is when things get strange . . .

    expand_more
    English

    Description

    18+ Ghostland A.K.A. Incident In A Ghost Land 2018 Movies 720p BluRay x264 5.1 with Sample ☻rDX☻

    ===============================================================================================

    SCREEN SHOTS:

    image

    or

    http://iphonehosting.eu/2018/6/owner/1.html

    File size : 883 MiB

    Duration : 1 h 31 min

    Overall bit rate : 1 354 kb/s

    Movie name : 18+ Ghostland A.K.A. Incident In A Ghost Land 2018 Movies 720p BluRay x264 5.1 ☻rDX☻

    Video

    ID : 2

    Format : AVC

    Format/Info : Advanced Video Codec

    Format profile : [email protected]
    Format settings, CABAC : Yes

    Format settings, ReFrames : 4 frames

    Codec ID : V_MPEG4/ISO/AVC

    Duration : 1 h 31 min

    Bit rate : 906 kb/s

    Width : 1 280 pixels

    Height : 536 pixels

    Display aspect ratio : 2.40:1

    Frame rate mode : Constant

    Frame rate : 24.000 FPS

    Color space : YUV

    Chroma subsampling : 4:2:0

    Bit depth : 8 bits

    Scan type : Progressive

    Bits/(Pixel*Frame) : 0.055

    Stream size : 574 MiB (65%)

    Title : ☻rDX☻

    Writing library : x264

    Audio

    ID : 1

    Format : AC-3

    Format/Info : Audio Coding 3

    Mode extension : CM (complete main)

    Format settings, Endianness : Big

    Codec ID : A_AC3

    Duration : 1 h 31 min

    Bit rate mode : Constant

    Bit rate : 448 kb/s

    Channel(s) : 6 channels

    Channel positions : Front: L C R, Side: L R, LFE

    Sampling rate : 48.0 kHz

    Frame rate : 31.250 FPS (1536 spf)

    Bit depth : 16 bits

    Compression mode : Lossy

    Delay relative to video : -5 ms

    Stream size : 292 MiB (33%)

    Title : ☻rDX☻

    Default : Yes

    Forced : No

    image

    IMDB : https://www.imdb.com/title/tt6195094


    More at ibit.to
    And ibit.uno
    And ibit.ws

    Reviews

    Ghostland looks good but spins its wheels a lot narratively, especially in the second half, when it collapses into a pile of cliches from which it never emerges. If only the storytellers had cared about substance as much as style ... It'll pass the time but you can easily find something better to consume.

    Comments

    1 year ago

    This movie was crazy thanks uploader

    Files

    18+ Ghostland A.K.A. Incident In A Ghost Land 2018 Movies 720p BluRay x264 5.1 with Sample ☻rDX☻/Sample ~ 18+ Ghostland A.K.A. Incident In A Ghost Lan 8.3 MB
    18+ Ghostland A.K.A. Incident In A Ghost Land 2018 Movies 720p BluRay x264 5.1 with Sample ☻rDX☻/18+ Ghostland A.K.A. Incident In A Ghost Land 2018 Mo 884 MB

    Stream

    Downloading Seeding 18+ Ghostland 2018 Movies 720p BluRay x264 5.1 with Sample ☻rDX☻ from to 0 peers.
    of
    0 b/s / ↗0 b/s