• 0
  • 0
  • 686
  • done
Sponsored Downloadondemand_video
  • 18+ Final Mission 2018 UNCENSORED Movies 720p HDRip x264 5.1 +Sa
  • 1.0 GB
  • basicssom
  • Final Mission 2018 UNCENSORED Movies 720p HDRip x264
  • English
  • HD - Movies

Description

18+ Final Mission 2018 UNCENSORED Movies 720p HDRip x264 5.1 with Sample ☻rDX☻

===============================================================================================

SCREEN SHOTS:

image

or

http://iphonehosting.eu/2018/9/a/wallet/1.html

File size : 995 MiB

Duration : 1 h 25 min

Overall bit rate mode : Constant

Overall bit rate : 1 633 kb/s

Movie name : 18+ Final Mission 2018 UNCENSORED Movies 720p HDRip x264 5.1 ☻rDX☻

Video

ID : 2

Format : AVC

Format/Info : Advanced Video Codec

Format profile : [email protected]
Format settings, CABAC : Yes

Format settings, ReFrames : 2 frames

Format settings, GOP : M=1, N=25

Codec ID : V_MPEG4/ISO/AVC

Duration : 1 h 25 min

Bit rate mode : Constant

Bit rate : 1 250 kb/s

Width : 1 280 pixels

Height : 544 pixels

Display aspect ratio : 2.35:1

Frame rate mode : Constant

Frame rate : 29.970 (30000/1001) FPS

Color space : YUV

Chroma subsampling : 4:2:0

Bit depth : 8 bits

Scan type : Progressive

Bits/(Pixel*Frame) : 0.060

Stream size : 741 MiB (74%)

Title : ☻rDX☻

Default : Yes

Forced : No

Audio

ID : 1

Format : AC-3

Format/Info : Audio Coding 3

Mode extension : CM (complete main)

Format settings, Endianness : Big

Codec ID : A_AC3

Duration : 1 h 25 min

Bit rate mode : Constant

Bit rate : 384 kb/s

Channel(s) : 6 channels

Channel positions : Front: L C R, Side: L R, LFE

Sampling rate : 48.0 kHz

Frame rate : 31.250 FPS (1536 spf)

Bit depth : 16 bits

Compression mode : Lossy

Stream size : 234 MiB (24%)

Title : ☻rDX☻

Language : English

Default : Yes

Forced : No

https://www.imdb.com/title/tt2582404

image


More at ibit.to
And ibit.uno
And ibit.ws

Comments

Files

Sample ~ 18+ Final Mission 2018 UNCENSORED Movies 720p HDRip x264 5.1 ☻rDX☻.mkv -
18+ Final Mission 2018 UNCENSORED Movies 720p HDRip x264 5.1 ☻rDX☻.mkv -
18+ Final Mission 2018 UNCENSORED Movies 720p HDRip x264 5.1 with Sample ☻rDX☻/Sample ~ 18+ Final Mission 2018 UNCENSORED Movies 720p HDRip x264 5.1 ☻ 12 MB
18+ Final Mission 2018 UNCENSORED Movies 720p HDRip x264 5.1 with Sample ☻rDX☻/18+ Final Mission 2018 UNCENSORED Movies 720p HDRip x264 5.1 ☻rDX☻.mkv 994 MB

Stream

Downloading Seeding 18+ Final Mission 2018 UNCENSORED Movies 720p HDRip x264 5.1 +Sa from to 0 peers.
of
0 b/s / ↗0 b/s