• 6
  • 0
  • 7,704
  • done
Sponsored Downloadondemand_video
  • 18+ Fifty Shades Freed 2018 UNCENSORED Movies 720p HDRip x264 5.
  • 978 MB
  • basicssom
  • Fifty Shades Freed 2018 UNCENSORED Movies 720p HDRip x264
  • English
  • HD - Movies
61%

Fifty Shades Freed (2018)

  • Drama Romance
  • Believing they have left behind shadowy figures from their past, newlyweds Christian and Ana fully embrace an inextricable connection and shared life of luxury. But just as she steps into her role as Mrs. Grey and he relaxes into an unfamiliar stability, new threats could jeopardize their happy ending before it even begins.

    expand_more
    English
  • $55,000,000
  • Description

    18+ Fifty Shades Freed 2018 UNCENSORED Movies 720p HDRip x264 5.1 with Sample ☻rDX☻

    ===============================================================================================

    SCREEN SHOTS:

    image

    or

    http://iphonehosting.eu/2018/4/power/1.html

    File size : 969 MiB

    Duration : 1 h 45 min

    Overall bit rate : 1 287 kb/s

    Movie name : 18+ Fifty Shades Freed 2018 UNCENSORED Movies 720p HDRip x264 5.1 ☻rDX☻

    Video

    ID : 2

    Format : AVC

    Format/Info : Advanced Video Codec

    Format profile : [email protected]
    Format settings, CABAC : Yes

    Format settings, ReFrames : 4 frames

    Codec ID : V_MPEG4/ISO/AVC

    Duration : 1 h 45 min

    Bit rate : 901 kb/s

    Width : 1 280 pixels

    Height : 536 pixels

    Display aspect ratio : 2.40:1

    Frame rate mode : Constant

    Frame rate : 29.970 (30000/1001) FPS

    Color space : YUV

    Chroma subsampling : 4:2:0

    Bit depth : 8 bits

    Scan type : Progressive

    Bits/(Pixel*Frame) : 0.044

    Stream size : 660 MiB (68%)

    Title : ☻rDX☻

    Writing library : x264

    Audio

    ID : 1

    Format : AC-3

    Format/Info : Audio Coding 3

    Mode extension : CM (complete main)

    Format settings, Endianness : Big

    Codec ID : A_AC3

    Duration : 1 h 45 min

    Bit rate mode : Constant

    Bit rate : 384 kb/s

    Channel(s) : 6 channels

    Channel positions : Front: L C R, Side: L R, LFE

    Sampling rate : 48.0 kHz

    Frame rate : 31.250 FPS (1536 spf)

    Bit depth : 16 bits

    Compression mode : Lossy

    Delay relative to video : -5 ms

    Stream size : 289 MiB (30%)

    Title : ☻rDX☻

    Default : Yes

    Forced : No

    image

    IMDB : http://www.imdb.com/title/tt4477536


    More at ibit.to
    And ibit.uno
    And ibit.ws

    Reviews

    Nice Movie ♥

    Comments

    Files

    18+ Fifty Shades Freed 2018 UNCENSORED Movies 720p HDRip x264 5.1 with Sample ☻rDX☻/Sample ~ 18+ Fifty Shades Freed 2018 UNCENSORED Movies 720p HDRip 9.0 MB
    18+ Fifty Shades Freed 2018 UNCENSORED Movies 720p HDRip x264 5.1 with Sample ☻rDX☻/18+ Fifty Shades Freed 2018 UNCENSORED Movies 720p HDRip x264 5.1 969 MB

    Stream

    Downloading Seeding 18+ Fifty Shades Freed 2018 UNCENSORED Movies 720p HDRip x264 5. from to 0 peers.
    of
    0 b/s / ↗0 b/s