• 0
  • 0
  • 58
Anonymous Downloadondemand_video
  • 15.Minutes.2001.1080p.BluRay.x264-FSiHD
  • 8.7 GB
  • TeXTX
  • Minutes 2001 1080p BluRay x264 FSiHD
  • English
  • HD
Warning! Use a VPN When Downloading Torrents!
Your IP Address is ,
Your Internet Provider can see when you download torrents! Hide your IP ADDRESS with a VPN
We strongly recommend Trust.Zone VPN to hide your torrenting. It's FREE!
DOWNLOAD VPN
58%

15 Minutes (2001)

  • Action Crime Thriller
  • When Eastern European criminals Oleg and Emil come to New York City to pick up their share of a heist score, Oleg steals a video camera and starts filming their activities, both legal and illegal. When they learn how the American media circus can make a remorseless killer look like the victim and make them rich, they target media-savvy NYPD Homicide Detective Eddie Flemming and media-naive FDNY Fire Marshal Jordy Warsaw, the cops investigating their murder and torching of their former criminal partner, filming everything to sell to the local tabloid TV show "Top Story."

    expand_more
    English
  • $60,000,000
  • Description

    ±±±²Û²±Ü

    ÛÛÛÛÛÛÛÛÛÛÛÛÛÛÛÛÛÛÛÛÛÛÛÛ²²²²²²²ÛÛÛÛÛÛÛÛÛÛÛÛÛÛ²²²ÛÛÛÛÛÛÛ²²ÛÛÛ²Û²²²±

    ÛÛÛ²ßß²ÝÞßßß²ÿÞܲßß² ÜÜ²Ü ±°

    Û²²Û Û ÝÞ ßßÛÛ² ÝÞÝÞ ÜÝ ² Release date...[01/06/2010 ±°

    Û² Û ßÝÞß ²ÛÛ ÝÞÝÞ ²Ýß ² Air date.......[??-??-???? °

    ° ²Ü²ÜÛܲßßÿÿÿßßßßßßßßßß Runtime........[2:0:39 ±

    Discs..........[1 .mkv ±°

    Archives.......[94x100MiB ±°

    Size...........[8.74 GiB ±°

    ±°

    Source.........[BluRay ±°

    Video format...[x264 ±°

    Framerate......[23.976 fps ±°

    Aspect ratio...[1920x816 ±°

    Video bitrate..[8 652 Kbps ±°

    Audio format...[DTS 1 510 Kbps CBR ±°

    Audio language.[English °

    ÿÿÿ ÿÿÿ ÿÿ

    Screens:

    image
    image
    image
    image
    image
    image

    [mediainfo]

    Video

    ID : 1

    Format : AVC

    Format/Info : Advanced Video Codec

    Format profile : [email protected]
    Format settings, CABAC : Yes

    Format settings, ReFrames : 5 frames

    Codec ID : V_MPEG4/ISO/AVC

    Duration : 2h 0mn

    Bit rate : 8 869 Kbps

    Width : 1 920 pixels

    Height : 816 pixels

    Display aspect ratio : 2.35:1

    Frame rate mode : Constant

    Frame rate : 23.976 fps

    Color space : YUV

    Chroma subsampling : 4:2:0

    Bit depth : 8 bits

    Scan type : Progressive

    Bits/(Pixel*Frame) : 0.236

    Stream size : 7.29 GiB (83%)

    Writing library : x264 core 96 r1602 69588a7

    Encoding settings : cabac=1 / ref=5 / deblock=1:0:0 / analyse=0x3:0x133 / me=umh / subme=8 / psy=1 / psyrd=1.00:0.00 / mixedref=1 / merange=16 / chromame=1 / trellis=1 / 8x8dct=1 / cqm=0 / deadzone=21,11 / fastpskip=0 / chromaqpoffset=-2 / threads=12 / slicedthreads=0 / nr=0 / decimate=1 / interlaced=0 / constrainedintra=0 / bframes=3 / bpyramid=2 / badapt=1 / bbias=0 / direct=1 / weightb=1 / weightp=2 / keyint=250 / keyintmin=25 / scenecut=40 / intrarefresh=0 / rclookahead=40 / rc=2pass / mbtree=1 / bitrate=8869 / ratetol=1.0 / qcomp=0.60 / qpmin=10 / qpmax=51 / qpstep=4 / cplxblur=20.0 / qblur=0.5 / ipratio=1.40 / aq=1:1.00

    Language : English

    Default : No

    Forced : No

    Audio

    ID : 2

    Format : DTS

    Format/Info : Digital Theater Systems

    Mode : 16

    Format settings, Endianness : Big

    Codec ID : A_DTS

    Duration : 2h 0mn

    Bit rate mode : Constant

    Bit rate : 1 509 Kbps

    Channel(s) : 6 channels

    Channel positions : Front: L C R, Side: L R, LFE

    Sampling rate : 48.0 KHz

    Bit depth : 24 bits

    Compression mode : Lossy

    Stream size : 1.27 GiB (15%)

    Default : Yes

    Forced : No

    Menu

    00:00:00.000 : en:00:00:00.000

    00:02:49.603 : en:00:02:49.603

    00:06:58.351 : en:00:06:58.351

    00:09:35.975 : en:00:09:35.975

    00:15:24.657 : en:00:15:24.657

    00:22:21.207 : en:00:22:21.207

    00:31:56.381 : en:00:31:56.381

    00:35:56.187 : en:00:35:56.187

    00:39:44.782 : en:00:39:44.782

    00:45:41.672 : en:00:45:41.672

    00:48:45.389 : en:00:48:45.389

    00:52:51.201 : en:00:52:51.201

    01:00:19.783 : en:01:00:19.783

    01:04:49.519 : en:01:04:49.519

    01:14:33.002 : en:01:14:33.002

    01:20:18.180 : en:01:20:18.180

    01:27:41.690 : en:01:27:41.690

    01:33:49.190 : en:01:33:49.190

    01:38:00.108 : en:01:38:00.108

    01:44:18.252 : en:01:44:18.252

    01:52:37.684 : en:01:52:37.684

    [/mediainfo]


    More at ibit.to
    And ibit.uno
    And ibit.ws

    Reviews

    Comments

    Files

    15 Minutes BluRay 1080p.mkv 8.7 GB
    RARBG.com.txt -
    fsi-thmn1080.nfo 5.0 kB

    Stream

    Downloading Seeding 15.Minutes.2001.1080p.BluRay.x264-FSiHD from to 0 peers.
    of
    0 b/s / ↗0 b/s