• -
  • -
  • done
Anonymous Downloadondemand_video
  • 100 вещей и ничего лишнего_2018_BDRip
  • 2.3 GB
  • порошков
  • 100 2018 BDRip
  • Зарубежное кино
Warning! Use a VPN When Downloading Torrents!
Your IP Address is ,
Your Internet Provider can see when you download torrents! Hide your IP ADDRESS with a VPN
We strongly recommend Trust.Zone VPN to hide your torrenting. It's FREE!
DOWNLOAD VPN
70%

100 (2019)

  • Thriller Action
  • A young cop, who works in a police control room, tries to solve the mysterious case of a kidnapped girl.

    Tamil

    Description

    100 вещей и ничего лишнего / 100 Dinge

    image

    Страна : Германия

    Жанр : комедия

    Год выпуска : 2018

    Продолжительность : 01:50:49


    Перевод : Профессиональный (дублированный) |

    iTunes

    Субтитры : русские, английские

    Оригинальная аудиодорожка : английский


    Режиссер : Флориан Давид Фиц / Florian David Fitz


    В ролях : Флориан Давид Фитц, Маттиас Швайгхефер, Мириам Штайн, Ханнелоре Эльснер, Вольфганг Штумф, Катарина Тальбах, Йоханнес Алльмайер, Сара Виктория Фрик, Макс Бретшнайдер, Мария Фуртвенглер


    Описание : Лучшие друзья Пауль и Тони, находясь буквально в шаге от богатства, на спор отказываются от всего своего имущества, чтобы доказать — вещи не имеют на парней никакого влияния. Ставки высоки, а их пари оказывается под угрозой, когда на горизонте появляется симпатичная девушка, ведь сложно произвести впечатление, когда ты миллионер без штанов…


    image


    Качество видео : BDRip |

    100.Things.2018.BDREMUX.1080p.seleZen

    Формат видео : AVI

    Видео : 720x304 (2.37:1), 23.976 fps, XviD build 73 ~2039 kbps avg, 0.39 bit/pixel

    Аудио 1 : 48 kHz, AC3 Dolby Digital, 3/2 (L,C,R,l,r) + LFE ch, ~384 kbps |

    rus

    Аудио 2 : 48 kHz, AC3 Dolby Digital, 3/2 (L,C,R,l,r) + LFE ch, ~384 kbps |

    eng


    Сэмпл


    MediaInfo

    ``

    Код:

    Формат                                   : AVI
    Формат/Информация                        : Audio Video Interleave
    Профиль формата                          : OpenDML
    Размер файла                             : 2,18 Гбайт
    Продолжительность                        : 1 ч. 50 м.
    Общий поток                              : 2814 Кбит/сек
    Название фильма                          : 100 вещей и ничего лишнего2018BDRip
    Программа кодирования                    : VirtualDubMod 1.5.10.3 | www.virtualdub-fr.org || (build 2550/release)
    Авторское право                          : порошков

    Видео
    Идентификатор                            : 0
    Формат                                   : MPEG-4 Visual
    Профиль формата                          : Advanced [email protected]
    Настройки формата                        : BVOP1 / Custom Matrix
    Параметр BVOP формата                    : 1
    Параметр QPel формата                    : Нет
    Параметр GMC формата                     : Без точки перехода
    Параметр матрицы формата                 : Выборочная
    Идентификатор кодека                     : XVID
    Идентификатор кодека/Подсказка           : XviD
    Продолжительность                        : 1 ч. 50 м.
    Битрейт                                  : 2028 Кбит/сек
    Ширина                                   : 720 пикселей
    Высота                                   : 304 пикселя
    Соотношение сторон                       : 2,35:1
    Частота кадров                           : 23,976 (24000/1001) кадра/сек
    Цветовое пространство                    : YUV
    Субдискретизация насыщенности            : 4:2:0
    Битовая глубина                          : 8 бит
    Тип развёртки                            : Прогрессивная
    Метод сжатия                             : С потерями
    Бит/(Пиксели*Кадры)                      : 0.387
    Размер потока                            : 1,57 Гбайт (72%)
    Библиотека кодирования                   : XviD 73

    Аудио #1
    Идентификатор                            : 1
    Формат                                   : AC-3
    Формат/Информация                        : Audio Coding 3
    Коммерческое название                    : Dolby Digital
    Идентификатор кодека                     : 2000
    Продолжительность                        : 1 ч. 50 м.
    Вид битрейта                             : Постоянный
    Битрейт                                  : 384 Кбит/сек
    Каналы                                   : 6 каналов
    ChannelLayout                            : L R C LFE Ls Rs
    Частота                                  : 48,0 КГц
    Частота кадров                           : 31,250 кадров/сек (1536 SPF)
    Битовая глубина                          : 16 бит
    Метод сжатия                             : С потерями
    Размер потока                            : 304 Мбайт (14%)
    Выравнивание                             : Разделение по промежуткам
    Продолжительность промежутка             : 42  мс. (1,00 видеокадр)
    Время предзагрузки промежутка            : 500  мс.
    Заголовок                                : Rus
    ServiceKind/String                       : Complete Main

    Аудио #2
    Идентификатор                            : 2
    Формат                                   : AC-3
    Формат/Информация                        : Audio Coding 3
    Коммерческое название                    : Dolby Digital
    Идентификатор кодека                     : 2000
    Продолжительность                        : 1 ч. 50 м.
    Вид битрейта                             : Постоянный
    Битрейт                                  : 384 Кбит/сек
    Каналы                                   : 6 каналов
    ChannelLayout                            : L R C LFE Ls Rs
    Частота                                  : 48,0 КГц
    Частота кадров                           : 31,250 кадров/сек (1536 SPF)
    Битовая глубина                          : 16 бит
    Метод сжатия                             : С потерями
    Размер потока                            : 304 Мбайт (14%)
    Выравнивание                             : Разделение по промежуткам
    Продолжительность промежутка             : 42  мс. (1,00 видеокадр)
    Время предзагрузки промежутка            : 500  мс.
    Заголовок                                : Eng
    ServiceKind/String                       : Complete Main

    Скриншоты

    image image image
    image image image


    More at ibit.to
    And ibit.uno
    And ibit.ws

    Reviews

    Comments

    Files

    100 вещей и ничего лишнего_2018_BDRip100 вещей и ничего лишнего_2018_BDRip.avi 2.3 GB
    100 вещей и ничего лишнего_2018_BDRip100 вещей и ничего лишнего_2018_BDRip_rus.srt 146 kB
    100 вещей и ничего лишнего_2018_BDRip100 вещей и ничего лишнего_2018_BDRip_eng.srt 107 kB

    Stream

    Downloading Seeding 100 вещей и ничего лишнего_2018_BDRip from to 0 peers.
    of
    0 b/s / ↗0 b/s