• 0
  • 0
  • done
Sponsored Downloadondemand_video
  • Охотник на оленей.avi
  • 2.9 GB
  • jiui3epiiyjib
  • avi
  • Зарубежное кино
80%

The Deer Hunter (1978)

  • Drama War
  • A group of working-class friends decides to enlist in the Army during the Vietnam War and finds it to be hellish chaos -- not the noble venture they imagined. Before they left, Steven married his pregnant girlfriend -- and Michael and Nick were in love with the same woman. But all three are different men upon their return.

    expand_more
    English
  • $15,000,000
  • Description

    Охотник на оленей / The Deer Hunter

    image

    Страна : Великобритания, США

    Жанр : драма, военный

    Год выпуска : 1978

    Продолжительность : 03:03:43

    Перевод : Авторский (одноголосый закадровый)

    Андрей Гаврилов

    Субтитры : нет

    Режиссер : Майкл Чимино / Michael Cimino

    В ролях : Роберт Де Ниро, Джон Казале, Джон Сэвидж, Кристофер Уокен, Мэрил Стрип, Джордж Зунза, Чак Эспегрен, Ширли Столер, Рутанья Алда, Пьер Сеги

    Описание : Фильм о трех американцах русского происхождения, их жизни до, во время и после войны во Вьетнаме.

    image image image

    Качество видео : НDRip

    Формат видео : AVI

    Видео кодек : XviD

    Аудио кодек : AC3

    Видео : 720x304 (2.37:1), 23.976 fps, XviD build 64 ~2071 kbps avg, 0.39 bit/pixel

    Аудио : 48 kHz, AC3 Dolby Digital, 2/0 (L,R) ch, ~192 kbps

    Доп.инфо

    за видеоряд спасибо

    Stuey

    за синхронизированную дорогу Гаврилова спасибо

    Zurab012

    MediaInfo

    Complete name : Охотник на оленей.avi
    Format : AVI
    Format/Info : Audio Video Interleave
    Format profile : OpenDML
    File size : 2.91 GiB
    Duration : 3h 3mn
    Overall bit rate : 2 270 Kbps
    Writing application : VirtualDubMod 1.5.10.3 | www.virtualdub-fr.org || (build 2550/release)
    Writing library : VirtualDubMod build 2550/release

    Video
    ID : 0
    Format : MPEG-4 Visual
    Format profile : Advanced Simple@L5
    Format settings, BVOP : 2
    Format settings, QPel : No
    Format settings, GMC : No warppoints
    Format settings, Matrix : Default (MPEG)
    Codec ID : XVID
    Codec ID/Hint : XviD
    Duration : 3h 3mn
    Bit rate : 2 068 Kbps
    Width : 720 pixels
    Height : 304 pixels
    Display aspect ratio : 2.35:1
    Frame rate : 23.976 fps
    Color space : YUV
    Chroma subsampling : 4:2:0
    Bit depth : 8 bits
    Scan type : Progressive
    Compression mode : Lossy
    Bits/(Pixel*Frame) : 0.394
    Stream size : 2.65 GiB (91%)
    Writing library : XviD 64

    Audio
    ID : 1
    Format : AC-3
    Format/Info : Audio Coding 3
    Mode extension : CM (complete main)
    Format settings, Endianness : Big
    Codec ID : 2000
    Duration : 3h 3mn
    Bit rate mode : Constant
    Bit rate : 192 Kbps
    Channel(s) : 2 channels
    Channel positions : Front: L R
    Sampling rate : 48.0 KHz
    Compression mode : Lossy
    Stream size : 252 MiB (8%)
    Alignment : Split accross interleaves
    Interleave, duration : 42 ms (1.00 video frame)
    Interleave, preload duratio : 500 ms

    Скриншоты

    image image image image image image


    More at ibit.to
    And ibit.uno
    And ibit.ws

    Reviews

    Slow pace movie which nicely depicts the life of worker class Russian inmigrants in USA and the impact that its young generation receives from Vietnam's war. The actual shock cause being the crazy game of the Russian roulette only helps from the artistic point of view of the film but it is well blended into the actual story.

    With director Cimino's recent death and his reputation in tatters since the debacle of 'Heaven's Gate', I decided to visit 'The Deer Hunter'. Though over three hours long, it's astonishing, paced so achingly right and I can see why he rightfully earned the 'carte blanche' that would unfortunately lead to his downfall (as well as an entire studio's) as soon as he made his next film. But to reach such heights and to have such ambition--as well as undeniable talent--is a victory in and of itself. Just armed with the main five actors alone, at the zenith of their craft, a fine script (really the first interesting and well-deliberated Vietnam film to hit the big screen) and Vilmos Zsigmond behind the camera meant that this would prove something special. Scenes that will haunt you forever. My favourite shot is the incredible 360-degree pan shot around Linda's bedroom when she realizes she's given up on Nick and is going to declare her love to Michael--extraordinary stuff. What's YOURS? Many film lovers who despise Cimino's work instantly clam up when 'The Deer Hunter' is mentioned...and there's a reason for that. It's deservedly considered one of the finest American films of the 70's--a decade that was chock-full of great ones.

    Comments

    2 years ago

    Вот Гаврилова нет в большой раздаче. А такой же озвучки, но в лучшем качестве не было?

    Files

    Охотник на оленей.avi 2.9 GB

    Stream

    Downloading Seeding Охотник на оленей.avi from to 0 peers.
    of
    0 b/s / ↗0 b/s